<?xml version="1.0" standalone="no"?>
<!DOCTYPE svg PUBLIC "-//W3C//DTD SVG 1.1//EN" "http://www.w3.org/Graphics/SVG/1.1/DTD/svg11.dtd" >
<svg xmlns="http://www.w3.org/2000/svg" xmlns:xlink="http://www.w3.org/1999/xlink" version="1.1">
<metadata>
Created by FontForge 20170731 at Tue Aug  1 20:26:56 2023
 By Aleksey,,,
Copyright (c) Font Awesome
</metadata>
<defs>
<font id="FontAwesome6Brands-Regular" horiz-adv-x="448" >
  <font-face 
    font-family="Font Awesome 6 Brands Regular"
    font-weight="400"
    font-stretch="normal"
    units-per-em="512"
    panose-1="2 0 5 3 0 0 0 0 0 0"
    ascent="448"
    descent="-64"
    x-height="414"
    bbox="-8 -67 642 448.444"
    underline-thickness="25"
    underline-position="-73"
    unicode-range="U+0030-1F4B2"
  />
<missing-glyph horiz-adv-x="384" 
d="M64 58l90 134l-90 134v-268v0zM103 0h179l-90 134l-89 -134v0zM231 192l89 -134v268l-89 -134v0zM282 384h-179l89 -134l90 134v0zM0 400q1 20 14 34v0q14 13 34 14h288q20 -1 34 -14q13 -14 14 -34v-416q-1 -20 -14 -34q-14 -13 -34 -14h-288q-20 1 -34 14
q-13 14 -14 34v416v0z" />
    <glyph glyph-name=".notdef" horiz-adv-x="384" 
d="M64 58l90 134l-90 134v-268v0zM103 0h179l-90 134l-89 -134v0zM231 192l89 -134v268l-89 -134v0zM282 384h-179l89 -134l90 134v0zM0 400q1 20 14 34v0q14 13 34 14h288q20 -1 34 -14q13 -14 14 -34v-416q-1 -20 -14 -34q-14 -13 -34 -14h-288q-20 1 -34 14
q-13 14 -14 34v416v0z" />
    <glyph glyph-name=".null" horiz-adv-x="0" 
 />
    <glyph glyph-name="nonmarkingreturn" horiz-adv-x="170" 
 />
    <glyph glyph-name="exclamation" unicode="&#xf12a;" horiz-adv-x="64" 
d="M64 384q0 14 -9 23v0q-9 9 -23 9t-23 -9t-9 -23v-256q0 -14 9 -23t23 -9t23 9t9 23v256v0zM32 -32q23 1 35 20q10 20 0 40q-12 19 -35 20q-23 -1 -35 -20q-10 -20 0 -40q12 -19 35 -20v0z" />
    <glyph glyph-name="exclamation" unicode="&#x2757;" horiz-adv-x="64" 
d="M64 384q0 14 -9 23v0q-9 9 -23 9t-23 -9t-9 -23v-256q0 -14 9 -23t23 -9t23 9t9 23v256v0zM32 -32q23 1 35 20q10 20 0 40q-12 19 -35 20q-23 -1 -35 -20q-10 -20 0 -40q12 -19 35 -20v0z" />
    <glyph glyph-name="exclamation" unicode="&#x2755;" horiz-adv-x="64" 
d="M64 384q0 14 -9 23v0q-9 9 -23 9t-23 -9t-9 -23v-256q0 -14 9 -23t23 -9t23 9t9 23v256v0zM32 -32q23 1 35 20q10 20 0 40q-12 19 -35 20q-23 -1 -35 -20q-10 -20 0 -40q12 -19 35 -20v0z" />
    <glyph glyph-name="exclamation" unicode="!" horiz-adv-x="64" 
d="M64 384q0 14 -9 23v0q-9 9 -23 9t-23 -9t-9 -23v-256q0 -14 9 -23t23 -9t23 9t9 23v256v0zM32 -32q23 1 35 20q10 20 0 40q-12 19 -35 20q-23 -1 -35 -20q-10 -20 0 -40q12 -19 35 -20v0z" />
    <glyph glyph-name="hashtag" unicode="&#xf292;" 
d="M181 416q14 -3 21 -13v0q7 -11 6 -24l-10 -59h95l11 69q3 14 13 21q11 7 24 6q14 -3 21 -13q7 -11 5 -24l-9 -59h58q14 0 23 -9t9 -23t-9 -23t-23 -9h-69l-21 -128h58q14 0 23 -9t9 -23t-9 -23t-23 -9h-69l-11 -69q-3 -14 -13 -21q-11 -7 -24 -6q-14 3 -21 13
q-7 11 -5 24l9 59h-95l-11 -69q-3 -14 -13 -21q-11 -8 -24 -6q-14 3 -21 13q-7 11 -5 24l9 59h-58q-14 0 -23 9t-9 23t9 23t23 9h69l21 128h-58q-14 0 -23 9t-9 23t9 23t23 9h69l11 69q3 14 13 21q11 7 24 6v0zM187 256l-21 -128h95l21 128h-95v0z" />
    <glyph glyph-name="hashtag" unicode="#" 
d="M181 416q14 -3 21 -13v0q7 -11 6 -24l-10 -59h95l11 69q3 14 13 21q11 7 24 6q14 -3 21 -13q7 -11 5 -24l-9 -59h58q14 0 23 -9t9 -23t-9 -23t-23 -9h-69l-21 -128h58q14 0 23 -9t9 -23t-9 -23t-23 -9h-69l-11 -69q-3 -14 -13 -21q-11 -7 -24 -6q-14 3 -21 13
q-7 11 -5 24l9 59h-95l-11 -69q-3 -14 -13 -21q-11 -8 -24 -6q-14 3 -21 13q-7 11 -5 24l9 59h-58q-14 0 -23 9t-9 23t9 23t23 9h69l21 128h-58q-14 0 -23 9t-9 23t9 23t23 9h69l11 69q3 14 13 21q11 7 24 6v0zM187 256l-21 -128h95l21 128h-95v0z" />
    <glyph glyph-name="dollar-sign" unicode="&#x1f4b2;" horiz-adv-x="320" 
d="M160 448q14 0 23 -9v0q9 -9 9 -23v-36h5v0l1 -1l48 -8q13 -3 20 -14q8 -10 6 -24q-3 -13 -14 -20q-10 -7 -24 -5l-47 8q-48 7 -78 -6q-28 -12 -29 -28q-3 -15 1 -20q2 -6 13 -13q24 -15 73 -27l3 -1h1q22 -5 45 -13q24 -8 44 -20q22 -14 36 -40q12 -27 6 -59
q-6 -29 -23 -48q-18 -19 -43 -29q-20 -8 -44 -11v-33q0 -14 -9 -23t-23 -9t-23 9t-9 23v35h-1v0h-1v0q-19 3 -44 10q-26 7 -47 16q-12 6 -17 18q-4 12 1 25q6 12 18 16q11 5 24 0q17 -7 38 -13t37 -9q49 -6 76 5q25 11 27 29q2 16 -1 21q-3 6 -13 13q-25 15 -74 26l-3 1v0v0
q-22 6 -46 14q-24 7 -44 20q-22 14 -35 40q-13 27 -6 59q5 28 24 47t44 29q20 8 43 11v35q0 14 9 23t23 9v0z" />
    <glyph glyph-name="dollar-sign" unicode="&#xf155;" horiz-adv-x="320" 
d="M160 448q14 0 23 -9v0q9 -9 9 -23v-36h5v0l1 -1l48 -8q13 -3 20 -14q8 -10 6 -24q-3 -13 -14 -20q-10 -7 -24 -5l-47 8q-48 7 -78 -6q-28 -12 -29 -28q-3 -15 1 -20q2 -6 13 -13q24 -15 73 -27l3 -1h1q22 -5 45 -13q24 -8 44 -20q22 -14 36 -40q12 -27 6 -59
q-6 -29 -23 -48q-18 -19 -43 -29q-20 -8 -44 -11v-33q0 -14 -9 -23t-23 -9t-23 9t-9 23v35h-1v0h-1v0q-19 3 -44 10q-26 7 -47 16q-12 6 -17 18q-4 12 1 25q6 12 18 16q11 5 24 0q17 -7 38 -13t37 -9q49 -6 76 5q25 11 27 29q2 16 -1 21q-3 6 -13 13q-25 15 -74 26l-3 1v0v0
q-22 6 -46 14q-24 7 -44 20q-22 14 -35 40q-13 27 -6 59q5 28 24 47t44 29q20 8 43 11v35q0 14 9 23t23 9v0z" />
    <glyph glyph-name="dollar-sign" unicode="$" horiz-adv-x="320" 
d="M160 448q14 0 23 -9v0q9 -9 9 -23v-36h5v0l1 -1l48 -8q13 -3 20 -14q8 -10 6 -24q-3 -13 -14 -20q-10 -7 -24 -5l-47 8q-48 7 -78 -6q-28 -12 -29 -28q-3 -15 1 -20q2 -6 13 -13q24 -15 73 -27l3 -1h1q22 -5 45 -13q24 -8 44 -20q22 -14 36 -40q12 -27 6 -59
q-6 -29 -23 -48q-18 -19 -43 -29q-20 -8 -44 -11v-33q0 -14 -9 -23t-23 -9t-23 9t-9 23v35h-1v0h-1v0q-19 3 -44 10q-26 7 -47 16q-12 6 -17 18q-4 12 1 25q6 12 18 16q11 5 24 0q17 -7 38 -13t37 -9q49 -6 76 5q25 11 27 29q2 16 -1 21q-3 6 -13 13q-25 15 -74 26l-3 1v0v0
q-22 6 -46 14q-24 7 -44 20q-22 14 -35 40q-13 27 -6 59q5 28 24 47t44 29q20 8 43 11v35q0 14 9 23t23 9v0z" />
    <glyph glyph-name="percent" unicode="&#xf541;" horiz-adv-x="384" 
d="M375 329q9 10 9 23v0q0 13 -9 23q-10 9 -23 9t-23 -9l-320 -320q-9 -10 -9 -23t9 -23q10 -9 23 -9t23 9l320 320v0zM128 320q-1 36 -32 55q-32 18 -64 0q-31 -19 -32 -55q1 -36 32 -55q32 -18 64 0q31 19 32 55v0zM384 64q-1 36 -32 55q-32 18 -64 0q-31 -19 -32 -55
q1 -36 32 -55q32 -18 64 0q31 19 32 55v0z" />
    <glyph glyph-name="percent" unicode="&#xf295;" horiz-adv-x="384" 
d="M375 329q9 10 9 23v0q0 13 -9 23q-10 9 -23 9t-23 -9l-320 -320q-9 -10 -9 -23t9 -23q10 -9 23 -9t23 9l320 320v0zM128 320q-1 36 -32 55q-32 18 -64 0q-31 -19 -32 -55q1 -36 32 -55q32 -18 64 0q31 19 32 55v0zM384 64q-1 36 -32 55q-32 18 -64 0q-31 -19 -32 -55
q1 -36 32 -55q32 -18 64 0q31 19 32 55v0z" />
    <glyph glyph-name="percent" unicode="%" horiz-adv-x="384" 
d="M375 329q9 10 9 23v0q0 13 -9 23q-10 9 -23 9t-23 -9l-320 -320q-9 -10 -9 -23t9 -23q10 -9 23 -9t23 9l320 320v0zM128 320q-1 36 -32 55q-32 18 -64 0q-31 -19 -32 -55q1 -36 32 -55q32 -18 64 0q31 19 32 55v0zM384 64q-1 36 -32 55q-32 18 -64 0q-31 -19 -32 -55
q1 -36 32 -55q32 -18 64 0q31 19 32 55v0z" />
    <glyph glyph-name="asterisk" unicode="&#xf069;" horiz-adv-x="384" 
d="M192 416q14 0 23 -9v0q9 -9 9 -23v-136l112 67q11 7 24 4q12 -3 19 -15q7 -11 4 -24q-3 -12 -15 -20l-114 -68l115 -69q11 -7 14 -19q3 -13 -3 -25q-8 -11 -20 -14q-13 -3 -24 3l-112 67v-135q0 -14 -9 -23t-23 -9t-23 9t-9 23v135l-111 -66q-12 -7 -25 -4q-12 3 -19 15
q-7 11 -4 24q3 12 15 19l114 69l-114 69q-12 7 -15 19q-3 13 4 24q7 12 19 15q13 3 24 -4l112 -67v136q0 14 9 23t23 9v0z" />
    <glyph glyph-name="asterisk" unicode="&#x2731;" horiz-adv-x="384" 
d="M192 416q14 0 23 -9v0q9 -9 9 -23v-136l112 67q11 7 24 4q12 -3 19 -15q7 -11 4 -24q-3 -12 -15 -20l-114 -68l115 -69q11 -7 14 -19q3 -13 -3 -25q-8 -11 -20 -14q-13 -3 -24 3l-112 67v-135q0 -14 -9 -23t-23 -9t-23 9t-9 23v135l-111 -66q-12 -7 -25 -4q-12 3 -19 15
q-7 11 -4 24q3 12 15 19l114 69l-114 69q-12 7 -15 19q-3 13 4 24q7 12 19 15q13 3 24 -4l112 -67v136q0 14 9 23t23 9v0z" />
    <glyph glyph-name="asterisk" unicode="*" horiz-adv-x="384" 
d="M192 416q14 0 23 -9v0q9 -9 9 -23v-136l112 67q11 7 24 4q12 -3 19 -15q7 -11 4 -24q-3 -12 -15 -20l-114 -68l115 -69q11 -7 14 -19q3 -13 -3 -25q-8 -11 -20 -14q-13 -3 -24 3l-112 67v-135q0 -14 -9 -23t-23 -9t-23 9t-9 23v135l-111 -66q-12 -7 -25 -4q-12 3 -19 15
q-7 11 -4 24q3 12 15 19l114 69l-114 69q-12 7 -15 19q-3 13 4 24q7 12 19 15q13 3 24 -4l112 -67v136q0 14 9 23t23 9v0z" />
    <glyph glyph-name="plus" unicode="&#xf067;" 
d="M256 368q0 14 -9 23v0q-9 9 -23 9t-23 -9t-9 -23v-144h-144q-14 0 -23 -9t-9 -23t9 -23t23 -9h144v-144q0 -14 9 -23t23 -9t23 9t9 23v144h144q14 0 23 9t9 23t-9 23t-23 9h-144v144v0z" />
    <glyph glyph-name="plus" unicode="&#x2795;" 
d="M256 368q0 14 -9 23v0q-9 9 -23 9t-23 -9t-9 -23v-144h-144q-14 0 -23 -9t-9 -23t9 -23t23 -9h144v-144q0 -14 9 -23t23 -9t23 9t9 23v144h144q14 0 23 9t9 23t-9 23t-23 9h-144v144v0z" />
    <glyph glyph-name="plus" unicode="+" 
d="M256 368q0 14 -9 23v0q-9 9 -23 9t-23 -9t-9 -23v-144h-144q-14 0 -23 -9t-9 -23t9 -23t23 -9h144v-144q0 -14 9 -23t23 -9t23 9t9 23v144h144q14 0 23 9t9 23t-9 23t-23 9h-144v144v0z" />
    <glyph glyph-name="0" unicode="0" horiz-adv-x="320" 
d="M0 256q2 68 47 113v0q45 45 113 47q68 -2 113 -47t47 -113v-128q-2 -68 -47 -113t-113 -47q-68 2 -113 47t-47 113v128v0zM160 352q-41 -1 -68 -28v0q-27 -27 -28 -68v-128q1 -41 28 -68t68 -28q41 1 68 28t28 68v128q-1 41 -28 68t-68 28v0z" />
    <glyph glyph-name="1" unicode="1" horiz-adv-x="256" 
d="M160 384q-1 19 -17 28q-17 9 -33 -1l-96 -64q-11 -8 -13 -21q-3 -12 4 -24q8 -11 21 -13q12 -3 24 4l46 31v-292h-64q-14 0 -23 -9t-9 -23t9 -23t23 -9h96h96q14 0 23 9t9 23t-9 23t-23 9h-64v352v0z" />
    <glyph glyph-name="2" unicode="2" horiz-adv-x="320" 
d="M143 352q-34 0 -58 -24l-30 -31q-10 -9 -23 -9t-23 9q-9 10 -9 23t9 23l31 30q43 42 103 43q62 -2 102 -43q41 -40 43 -102q-1 -60 -42 -103l-137 -136h179q14 0 23 -9t9 -23t-9 -23t-23 -9h-256q-21 1 -30 20q-7 19 7 35l191 190q23 24 24 58q-1 34 -24 57t-57 24v0z
" />
    <glyph glyph-name="3" unicode="3" horiz-adv-x="320" 
d="M0 384q0 14 9 23v0q9 9 23 9h240q21 -1 30 -20q7 -21 -8 -36l-132 -120h22q58 -1 96 -40q39 -38 40 -96q-1 -58 -40 -96q-38 -39 -96 -40h-79q-32 0 -58 17q-27 16 -42 45l-2 4q-5 12 -1 24t16 19q12 5 24 1t19 -16l2 -4q13 -25 42 -26h79q31 1 51 21t21 51q-1 31 -21 51
t-51 21h-104q-21 1 -30 20q-7 21 8 36l132 120h-158q-14 0 -23 9t-9 23v0z" />
    <glyph glyph-name="4" unicode="4" horiz-adv-x="384" 
d="M189 370q5 13 1 25v0q-4 12 -16 18q-13 5 -25 1t-18 -16l-128 -272q-7 -16 2 -31q10 -15 27 -15h224v-80q0 -14 9 -23t23 -9t23 9t9 23v80h32q14 0 23 9t9 23t-9 23t-23 9h-32v144q0 14 -9 23t-23 9t-23 -9t-9 -23v-144h-174l107 226v0z" />
    <glyph glyph-name="5" unicode="5" horiz-adv-x="320" 
d="M33 390q6 24 31 26h192q14 0 23 -9t9 -23t-9 -23t-23 -9h-165l-21 -112h114q58 -1 96 -40q39 -38 40 -96q-1 -58 -40 -96q-38 -39 -96 -40h-83q-31 0 -55 16q-25 15 -38 41l-5 9q-5 12 -1 24t16 19q12 5 24 1t19 -16l4 -8q11 -21 36 -22h83q31 1 51 21t21 51
q-1 31 -21 51t-51 21h-152q-15 0 -25 11q-9 12 -7 27l33 176v0z" />
    <glyph glyph-name="6" unicode="6" horiz-adv-x="320" 
d="M232 363q9 11 8 24v0q-1 12 -11 21q-11 9 -24 8q-12 -1 -21 -11l-145 -172q-37 -43 -39 -100v-2v-3v0v0q2 -68 47 -113t113 -47q68 2 113 47t47 113q-2 66 -44 110q-43 45 -107 50l63 75v0zM256 128q0 -26 -13 -48v0q-13 -22 -35 -35q-23 -13 -48 -13t-48 13
q-22 13 -35 35t-13 48t13 48t35 35q23 13 48 13t48 -13q22 -13 35 -35t13 -48v0z" />
    <glyph glyph-name="7" unicode="7" horiz-adv-x="320" 
d="M0 384q0 14 9 23v0q9 9 23 9h256q18 -1 28 -16q8 -16 0 -32l-224 -384q-8 -12 -20 -15t-24 3q-12 7 -15 20q-3 12 3 24l196 336h-200q-14 0 -23 9t-9 23v0z" />
    <glyph glyph-name="8" unicode="8" horiz-adv-x="320" 
d="M304 288q-1 54 -37 91v0q-37 36 -91 37h-32q-54 -1 -91 -37q-36 -37 -37 -91q1 -53 36 -89q-24 -18 -38 -44q-14 -27 -14 -59q1 -54 37 -91q37 -36 91 -37h64q54 1 91 37q36 37 37 91q0 32 -14 59q-14 26 -38 44q35 36 36 89v0zM176 160h16q27 -1 45 -19t19 -45
q-1 -27 -19 -45t-45 -19h-64q-27 1 -45 19t-19 45q1 27 19 45t45 19h16v0v0h32v0v0v0zM176 224v0v0v0h-32v0v0q-27 1 -45 19t-19 45q1 27 19 45t45 19h32q27 -1 45 -19t19 -45q-1 -27 -19 -45t-45 -19v0z" />
    <glyph glyph-name="9" unicode="9" horiz-adv-x="320" 
d="M64 256q0 -26 13 -48v0q13 -22 35 -35q23 -13 48 -13t48 13q22 13 35 35t13 48t-13 48t-35 35q-23 13 -48 13t-48 -13q-22 -13 -35 -35t-13 -48v0zM152 96q-65 5 -108 50v0q-42 44 -44 110q2 68 47 113t113 47q68 -2 113 -47t47 -113v-8q-3 -55 -39 -97l-145 -172
q-9 -10 -21 -11q-13 -1 -24 8q-10 9 -11 21q-1 13 7 24l64 75h1z" />
    <glyph glyph-name="less-than" unicode="&#xf536;" horiz-adv-x="384" 
d="M381 366q5 -12 1 -24v0q-4 -12 -16 -19l-262 -131l262 -131q12 -7 16 -19t-1 -24q-7 -12 -19 -16t-24 1l-320 160q-17 10 -18 29q1 19 18 29l320 160q12 5 24 1t19 -16v0z" />
    <glyph glyph-name="less-than" unicode="&#x3c;" horiz-adv-x="384" 
d="M381 366q5 -12 1 -24v0q-4 -12 -16 -19l-262 -131l262 -131q12 -7 16 -19t-1 -24q-7 -12 -19 -16t-24 1l-320 160q-17 10 -18 29q1 19 18 29l320 160q12 5 24 1t19 -16v0z" />
    <glyph glyph-name="equals" unicode="&#xf52c;" 
d="M48 320q-14 0 -23 -9v0q-9 -9 -9 -23t9 -23t23 -9h352q14 0 23 9t9 23t-9 23t-23 9h-352v0zM48 128q-14 0 -23 -9v0q-9 -9 -9 -23t9 -23t23 -9h352q14 0 23 9t9 23t-9 23t-23 9h-352v0z" />
    <glyph glyph-name="equals" unicode="=" 
d="M48 320q-14 0 -23 -9v0q-9 -9 -9 -23t9 -23t23 -9h352q14 0 23 9t9 23t-9 23t-23 9h-352v0zM48 128q-14 0 -23 -9v0q-9 -9 -9 -23t9 -23t23 -9h352q14 0 23 9t9 23t-9 23t-23 9h-352v0z" />
    <glyph glyph-name="greater-than" unicode="&#xf531;" horiz-adv-x="384" 
d="M3 366q-5 -12 -1 -24v0q4 -12 16 -19l263 -131l-263 -131q-12 -7 -16 -19t1 -24q7 -12 19 -16t24 1l320 160q17 10 18 29q-1 19 -18 29l-320 160q-12 5 -24 1t-19 -16v0z" />
    <glyph glyph-name="greater-than" unicode="&#x3e;" horiz-adv-x="384" 
d="M3 366q-5 -12 -1 -24v0q4 -12 16 -19l263 -131l-263 -131q-12 -7 -16 -19t1 -24q7 -12 19 -16t24 1l320 160q17 10 18 29q-1 19 -18 29l-320 160q-12 5 -24 1t-19 -16v0z" />
    <glyph glyph-name="question" unicode="&#xf128;" horiz-adv-x="320" 
d="M80 288q1 27 19 45v0q18 18 45 19h32q27 -1 45 -19t19 -45v-4q-1 -34 -29 -53l-43 -28q-39 -26 -40 -74v-1q0 -14 9 -23t23 -9t23 9t9 23v1q0 13 11 21l42 27q28 18 43 46q16 28 16 61v4q-1 54 -37 91q-37 36 -91 37h-32q-54 -1 -91 -37q-36 -37 -37 -91q0 -14 9 -23
t23 -9t23 9t9 23v0zM160 -32q23 1 35 20q10 20 0 40q-12 19 -35 20q-23 -1 -35 -20q-10 -20 0 -40q12 -19 35 -20v0z" />
    <glyph glyph-name="question" unicode="&#x2754;" horiz-adv-x="320" 
d="M80 288q1 27 19 45v0q18 18 45 19h32q27 -1 45 -19t19 -45v-4q-1 -34 -29 -53l-43 -28q-39 -26 -40 -74v-1q0 -14 9 -23t23 -9t23 9t9 23v1q0 13 11 21l42 27q28 18 43 46q16 28 16 61v4q-1 54 -37 91q-37 36 -91 37h-32q-54 -1 -91 -37q-36 -37 -37 -91q0 -14 9 -23
t23 -9t23 9t9 23v0zM160 -32q23 1 35 20q10 20 0 40q-12 19 -35 20q-23 -1 -35 -20q-10 -20 0 -40q12 -19 35 -20v0z" />
    <glyph glyph-name="question" unicode="&#x2753;" horiz-adv-x="320" 
d="M80 288q1 27 19 45v0q18 18 45 19h32q27 -1 45 -19t19 -45v-4q-1 -34 -29 -53l-43 -28q-39 -26 -40 -74v-1q0 -14 9 -23t23 -9t23 9t9 23v1q0 13 11 21l42 27q28 18 43 46q16 28 16 61v4q-1 54 -37 91q-37 36 -91 37h-32q-54 -1 -91 -37q-36 -37 -37 -91q0 -14 9 -23
t23 -9t23 9t9 23v0zM160 -32q23 1 35 20q10 20 0 40q-12 19 -35 20q-23 -1 -35 -20q-10 -20 0 -40q12 -19 35 -20v0z" />
    <glyph glyph-name="question" unicode="?" horiz-adv-x="320" 
d="M80 288q1 27 19 45v0q18 18 45 19h32q27 -1 45 -19t19 -45v-4q-1 -34 -29 -53l-43 -28q-39 -26 -40 -74v-1q0 -14 9 -23t23 -9t23 9t9 23v1q0 13 11 21l42 27q28 18 43 46q16 28 16 61v4q-1 54 -37 91q-37 36 -91 37h-32q-54 -1 -91 -37q-36 -37 -37 -91q0 -14 9 -23
t23 -9t23 9t9 23v0zM160 -32q23 1 35 20q10 20 0 40q-12 19 -35 20q-23 -1 -35 -20q-10 -20 0 -40q12 -19 35 -20v0z" />
    <glyph glyph-name="at" unicode="&#xf1fa;" horiz-adv-x="512" 
d="M256 384q-82 -2 -136 -56v0q-54 -54 -56 -136q2 -82 56 -136t136 -56q14 0 23 -9t9 -23t-9 -23t-23 -9q-72 1 -129 35q-58 34 -92 92q-34 57 -35 129q1 72 35 129q34 58 92 92q57 34 129 35q72 -1 129 -35q58 -34 92 -92q34 -57 35 -129v-32q-1 -41 -28 -68t-68 -28
q-45 1 -73 34q-36 -33 -87 -34q-54 1 -91 37q-36 37 -37 91q1 54 37 91q37 36 91 37q43 -1 75 -24q8 8 21 8q14 0 23 -9t9 -23v-80v-32q0 -14 9 -23t23 -9t23 9t9 23v32q-2 82 -56 136t-136 56v0zM320 192q-1 36 -32 55q-32 18 -64 0q-31 -19 -32 -55q1 -36 32 -55
q32 -18 64 0q31 19 32 55v0z" />
    <glyph glyph-name="at" unicode="@" horiz-adv-x="512" 
d="M256 384q-82 -2 -136 -56v0q-54 -54 -56 -136q2 -82 56 -136t136 -56q14 0 23 -9t9 -23t-9 -23t-23 -9q-72 1 -129 35q-58 34 -92 92q-34 57 -35 129q1 72 35 129q34 58 92 92q57 34 129 35q72 -1 129 -35q58 -34 92 -92q34 -57 35 -129v-32q-1 -41 -28 -68t-68 -28
q-45 1 -73 34q-36 -33 -87 -34q-54 1 -91 37q-36 37 -37 91q1 54 37 91q37 36 91 37q43 -1 75 -24q8 8 21 8q14 0 23 -9t9 -23v-80v-32q0 -14 9 -23t23 -9t23 9t9 23v32q-2 82 -56 136t-136 56v0zM320 192q-1 36 -32 55q-32 18 -64 0q-31 -19 -32 -55q1 -36 32 -55
q32 -18 64 0q31 19 32 55v0z" />
    <glyph glyph-name="a" unicode="a" horiz-adv-x="384" 
d="M222 396q-9 19 -30 20q-21 -1 -29 -20l-120 -288l-40 -96q-5 -12 -1 -24q5 -12 18 -18q12 -4 24 0q12 5 18 18l31 76h198l32 -76q5 -13 17 -18q12 -4 24 0q13 6 18 18q4 12 0 24l-40 96l-120 288v0zM264 128h-144l72 173l72 -173v0z" />
    <glyph glyph-name="a" unicode="A" horiz-adv-x="384" 
d="M222 396q-9 19 -30 20q-21 -1 -29 -20l-120 -288l-40 -96q-5 -12 -1 -24q5 -12 18 -18q12 -4 24 0q12 5 18 18l31 76h198l32 -76q5 -13 17 -18q12 -4 24 0q13 6 18 18q4 12 0 24l-40 96l-120 288v0zM264 128h-144l72 173l72 -173v0z" />
    <glyph glyph-name="b" unicode="b" horiz-adv-x="320" 
d="M64 416q-27 -1 -45 -19v0q-18 -18 -19 -45v-160v-160q1 -27 19 -45t45 -19h128q54 1 91 37q36 37 37 91q0 35 -17 64t-45 46q29 34 30 82q-1 54 -37 91q-37 36 -91 37h-96v0zM160 224h-96v128h96q27 -1 45 -19t19 -45q-1 -27 -19 -45t-45 -19v0zM64 160h96h32
q27 -1 45 -19t19 -45q-1 -27 -19 -45t-45 -19h-128v128v0z" />
    <glyph glyph-name="b" unicode="B" horiz-adv-x="320" 
d="M64 416q-27 -1 -45 -19v0q-18 -18 -19 -45v-160v-160q1 -27 19 -45t45 -19h128q54 1 91 37q36 37 37 91q0 35 -17 64t-45 46q29 34 30 82q-1 54 -37 91q-37 36 -91 37h-96v0zM160 224h-96v128h96q27 -1 45 -19t19 -45q-1 -27 -19 -45t-45 -19v0zM64 160h96h32
q27 -1 45 -19t19 -45q-1 -27 -19 -45t-45 -19h-128v128v0z" />
    <glyph glyph-name="c" unicode="c" horiz-adv-x="384" 
d="M329 305q-49 47 -109 47v0q-60 0 -109 -47q-47 -49 -47 -113t47 -113q49 -47 109 -47t109 47q10 9 23 9t22 -9q10 -10 10 -23t-10 -23q-68 -65 -154 -65t-154 65q-44 45 -59 102q-14 57 0 114q15 57 59 101q68 66 154 66t154 -66q10 -10 10 -22q0 -13 -10 -23
q-9 -9 -22 -9t-23 9v0z" />
    <glyph glyph-name="c" unicode="C" horiz-adv-x="384" 
d="M329 305q-49 47 -109 47v0q-60 0 -109 -47q-47 -49 -47 -113t47 -113q49 -47 109 -47t109 47q10 9 23 9t22 -9q10 -10 10 -23t-10 -23q-68 -65 -154 -65t-154 65q-44 45 -59 102q-14 57 0 114q15 57 59 101q68 66 154 66t154 -66q10 -10 10 -22q0 -13 -10 -23
q-9 -9 -22 -9t-23 9v0z" />
    <glyph glyph-name="d" unicode="d" horiz-adv-x="384" 
d="M0 352q1 27 19 45v0q18 18 45 19h96q63 -1 113 -31q51 -29 80 -80q30 -50 31 -113q-1 -63 -31 -113q-29 -51 -80 -80q-50 -30 -113 -31h-96q-27 1 -45 19t-19 45v320v0zM160 352h-96v-320h96q68 2 113 47t47 113q-2 68 -47 113t-113 47v0z" />
    <glyph glyph-name="d" unicode="D" horiz-adv-x="384" 
d="M0 352q1 27 19 45v0q18 18 45 19h96q63 -1 113 -31q51 -29 80 -80q30 -50 31 -113q-1 -63 -31 -113q-29 -51 -80 -80q-50 -30 -113 -31h-96q-27 1 -45 19t-19 45v320v0zM160 352h-96v-320h96q68 2 113 47t47 113q-2 68 -47 113t-113 47v0z" />
    <glyph glyph-name="e" unicode="e" horiz-adv-x="320" 
d="M64 416q-27 -1 -45 -19v0q-18 -18 -19 -45v-160v-160q1 -27 19 -45t45 -19h224q14 0 23 9t9 23t-9 23t-23 9h-224v128h160q14 0 23 9t9 23t-9 23t-23 9h-160v128h224q14 0 23 9t9 23t-9 23t-23 9h-224v0z" />
    <glyph glyph-name="e" unicode="E" horiz-adv-x="320" 
d="M64 416q-27 -1 -45 -19v0q-18 -18 -19 -45v-160v-160q1 -27 19 -45t45 -19h224q14 0 23 9t9 23t-9 23t-23 9h-224v128h160q14 0 23 9t9 23t-9 23t-23 9h-160v128h224q14 0 23 9t9 23t-9 23t-23 9h-224v0z" />
    <glyph glyph-name="f" unicode="f" horiz-adv-x="320" 
d="M64 416q-27 -1 -45 -19v0q-18 -18 -19 -45v-160v-192q0 -14 9 -23t23 -9t23 9t9 23v160h160q14 0 23 9t9 23t-9 23t-23 9h-160v128h224q14 0 23 9t9 23t-9 23t-23 9h-224v0z" />
    <glyph glyph-name="f" unicode="F" horiz-adv-x="320" 
d="M64 416q-27 -1 -45 -19v0q-18 -18 -19 -45v-160v-192q0 -14 9 -23t23 -9t23 9t9 23v160h160q14 0 23 9t9 23t-9 23t-23 9h-160v128h224q14 0 23 9t9 23t-9 23t-23 9h-224v0z" />
    <glyph glyph-name="g" unicode="g" 
d="M224 352q-68 -2 -113 -47v0q-45 -45 -47 -113q2 -68 47 -113t113 -47q59 1 102 37q43 35 55 91h-125q-14 0 -23 9t-9 23t9 23t23 9h144q20 0 34 -14t13 -37q-9 -88 -71 -145q-62 -58 -152 -60q-63 1 -113 31q-51 29 -80 80q-30 50 -31 113q1 63 31 113q29 51 80 80
q50 30 113 31q88 -2 149 -57q10 -9 11 -22t-8 -23q-10 -10 -22 -11q-13 -1 -23 8q-44 40 -107 41v0z" />
    <glyph glyph-name="g" unicode="G" 
d="M224 352q-68 -2 -113 -47v0q-45 -45 -47 -113q2 -68 47 -113t113 -47q59 1 102 37q43 35 55 91h-125q-14 0 -23 9t-9 23t9 23t23 9h144q20 0 34 -14t13 -37q-9 -88 -71 -145q-62 -58 -152 -60q-63 1 -113 31q-51 29 -80 80q-30 50 -31 113q1 63 31 113q29 51 80 80
q50 30 113 31q88 -2 149 -57q10 -9 11 -22t-8 -23q-10 -10 -22 -11q-13 -1 -23 8q-44 40 -107 41v0z" />
    <glyph glyph-name="h" unicode="h" horiz-adv-x="384" 
d="M320 192v-192q0 -14 9 -23t23 -9t23 9t9 23v224v160q0 14 -9 23t-23 9t-23 -9t-9 -23v-128h-256v128q0 14 -9 23t-23 9t-23 -9t-9 -23v-384q0 -14 9 -23t23 -9t23 9t9 23v192h256v0z" />
    <glyph glyph-name="h" unicode="H" horiz-adv-x="384" 
d="M320 192v-192q0 -14 9 -23t23 -9t23 9t9 23v224v160q0 14 -9 23t-23 9t-23 -9t-9 -23v-128h-256v128q0 14 -9 23t-23 9t-23 -9t-9 -23v-384q0 -14 9 -23t23 -9t23 9t9 23v192h256v0z" />
    <glyph glyph-name="i" unicode="i" horiz-adv-x="320" 
d="M32 416q-14 0 -23 -9v0q-9 -9 -9 -23t9 -23t23 -9h96v-320h-96q-14 0 -23 -9t-9 -23t9 -23t23 -9h256q14 0 23 9t9 23t-9 23t-23 9h-96v320h96q14 0 23 9t9 23t-9 23t-23 9h-128h-128v0z" />
    <glyph glyph-name="i" unicode="I" horiz-adv-x="320" 
d="M32 416q-14 0 -23 -9v0q-9 -9 -9 -23t9 -23t23 -9h96v-320h-96q-14 0 -23 -9t-9 -23t9 -23t23 -9h256q14 0 23 9t9 23t-9 23t-23 9h-96v320h96q14 0 23 9t9 23t-9 23t-23 9h-128h-128v0z" />
    <glyph glyph-name="j" unicode="j" horiz-adv-x="320" 
d="M288 416q14 0 23 -9v0q9 -9 9 -23v-256q-2 -68 -47 -113t-113 -47q-68 2 -113 47t-47 113v32q0 14 9 23t23 9t23 -9t9 -23v-32q1 -41 28 -68t68 -28q41 1 68 28t28 68v256q0 14 9 23t23 9v0z" />
    <glyph glyph-name="j" unicode="J" horiz-adv-x="320" 
d="M288 416q14 0 23 -9v0q9 -9 9 -23v-256q-2 -68 -47 -113t-113 -47q-68 2 -113 47t-47 113v32q0 14 9 23t23 9t23 -9t9 -23v-32q1 -41 28 -68t68 -28q41 1 68 28t28 68v256q0 14 9 23t23 9v0z" />
    <glyph glyph-name="k" unicode="k" horiz-adv-x="320" 
d="M311 362q9 10 9 22v0q0 13 -10 23q-10 9 -22 9q-13 0 -23 -10l-155 -160l-46 -47v185q0 14 -9 23t-23 9t-23 -9t-9 -23v-264v-120q0 -14 9 -23t23 -9t23 9t9 23v107l65 67l133 -192q8 -11 20 -14q13 -2 24 6t13 20q3 13 -5 24l-140 203l137 141v0z" />
    <glyph glyph-name="k" unicode="K" horiz-adv-x="320" 
d="M311 362q9 10 9 22v0q0 13 -10 23q-10 9 -22 9q-13 0 -23 -10l-155 -160l-46 -47v185q0 14 -9 23t-23 9t-23 -9t-9 -23v-264v-120q0 -14 9 -23t23 -9t23 9t9 23v107l65 67l133 -192q8 -11 20 -14q13 -2 24 6t13 20q3 13 -5 24l-140 203l137 141v0z" />
    <glyph glyph-name="l" unicode="l" horiz-adv-x="320" 
d="M64 416q14 0 23 -9v0q9 -9 9 -23v-352h192q14 0 23 -9t9 -23t-9 -23t-23 -9h-224q-14 0 -23 9t-9 23v384q0 14 9 23t23 9v0z" />
    <glyph glyph-name="l" unicode="L" horiz-adv-x="320" 
d="M64 416q14 0 23 -9v0q9 -9 9 -23v-352h192q14 0 23 -9t9 -23t-9 -23t-23 -9h-224q-14 0 -23 9t-9 23v384q0 14 9 23t23 9v0z" />
    <glyph glyph-name="m" unicode="m" 
d="M23 415q22 5 36 -13l165 -248l165 248q14 18 36 13q22 -8 23 -31v-384q0 -14 -9 -23t-23 -9t-23 9t-9 23v278l-133 -200q-10 -14 -27 -14t-27 14l-133 200v-278q0 -14 -9 -23t-23 -9t-23 9t-9 23v384q1 23 23 31v0z" />
    <glyph glyph-name="m" unicode="M" 
d="M23 415q22 5 36 -13l165 -248l165 248q14 18 36 13q22 -8 23 -31v-384q0 -14 -9 -23t-23 -9t-23 9t-9 23v278l-133 -200q-10 -14 -27 -14t-27 14l-133 200v-278q0 -14 -9 -23t-23 -9t-23 9t-9 23v384q1 23 23 31v0z" />
    <glyph glyph-name="n" unicode="n" horiz-adv-x="384" 
d="M21 414q21 6 36 -10l263 -316v296q0 14 9 23t23 9t23 -9t9 -23v-384q-1 -22 -21 -30q-21 -6 -36 9l-263 317v-296q0 -14 -9 -23t-23 -9t-23 9t-9 23v384q1 22 21 30v0z" />
    <glyph glyph-name="n" unicode="N" horiz-adv-x="384" 
d="M21 414q21 6 36 -10l263 -316v296q0 14 9 23t23 9t23 -9t9 -23v-384q-1 -22 -21 -30q-21 -6 -36 9l-263 317v-296q0 -14 -9 -23t-23 -9t-23 9t-9 23v384q1 22 21 30v0z" />
    <glyph glyph-name="o" unicode="o" 
d="M224 352q-43 0 -80 -21v0q-37 -22 -59 -59q-21 -38 -21 -80t21 -80q22 -37 59 -59q37 -21 80 -21t80 21q37 22 59 59q21 38 21 80t-21 80q-22 37 -59 59q-37 21 -80 21v0zM448 192q-1 -61 -30 -112v0q-30 -51 -82 -82q-53 -30 -112 -30t-112 30q-52 31 -82 82
q-29 51 -30 112q1 61 30 112q30 51 82 82q53 30 112 30t112 -30q52 -31 82 -82q29 -51 30 -112v0z" />
    <glyph glyph-name="o" unicode="O" 
d="M224 352q-43 0 -80 -21v0q-37 -22 -59 -59q-21 -38 -21 -80t21 -80q22 -37 59 -59q37 -21 80 -21t80 21q37 22 59 59q21 38 21 80t-21 80q-22 37 -59 59q-37 21 -80 21v0zM448 192q-1 -61 -30 -112v0q-30 -51 -82 -82q-53 -30 -112 -30t-112 30q-52 31 -82 82
q-29 51 -30 112q1 61 30 112q30 51 82 82q53 30 112 30t112 -30q52 -31 82 -82q29 -51 30 -112v0z" />
    <glyph glyph-name="p" unicode="p" horiz-adv-x="320" 
d="M0 352q1 27 19 45v0q18 18 45 19h96q68 -2 113 -47t47 -113q-2 -68 -47 -113t-113 -47h-96v-96q0 -14 -9 -23t-23 -9t-23 9t-9 23v128v224v0zM64 160h96q41 1 68 28t28 68q-1 41 -28 68t-68 28h-96v-192v0z" />
    <glyph glyph-name="p" unicode="P" horiz-adv-x="320" 
d="M0 352q1 27 19 45v0q18 18 45 19h96q68 -2 113 -47t47 -113q-2 -68 -47 -113t-113 -47h-96v-96q0 -14 -9 -23t-23 -9t-23 9t-9 23v128v224v0zM64 160h96q41 1 68 28t28 68q-1 41 -28 68t-68 28h-96v-192v0z" />
    <glyph glyph-name="q" unicode="q" 
d="M64 192q2 -68 47 -113v0q45 -45 113 -47q44 1 79 21l-72 86q-8 11 -7 24t12 22q10 8 23 7t22 -12l71 -85q31 42 32 97q-2 68 -47 113t-113 47q-68 -2 -113 -47t-47 -113v0zM345 3q-53 -34 -121 -35q-63 1 -113 31q-51 29 -80 80q-30 50 -31 113q1 63 31 113q29 51 80 80
q50 30 113 31q63 -1 113 -31q51 -29 80 -80q30 -50 31 -113q-2 -86 -55 -147l48 -57q8 -10 7 -23t-12 -22q-10 -8 -23 -7t-22 11l-46 56v0z" />
    <glyph glyph-name="q" unicode="Q" 
d="M64 192q2 -68 47 -113v0q45 -45 113 -47q44 1 79 21l-72 86q-8 11 -7 24t12 22q10 8 23 7t22 -12l71 -85q31 42 32 97q-2 68 -47 113t-113 47q-68 -2 -113 -47t-47 -113v0zM345 3q-53 -34 -121 -35q-63 1 -113 31q-51 29 -80 80q-30 50 -31 113q1 63 31 113q29 51 80 80
q50 30 113 31q63 -1 113 -31q51 -29 80 -80q30 -50 31 -113q-2 -86 -55 -147l48 -57q8 -10 7 -23t-12 -22q-10 -8 -23 -7t-22 11l-46 56v0z" />
    <glyph glyph-name="r" unicode="r" horiz-adv-x="320" 
d="M64 416q-27 -1 -45 -19v0q-18 -18 -19 -45v-192v-160q0 -14 9 -23t23 -9t23 9t9 23v128h95l103 -146q8 -11 20 -14q13 -2 24 6t14 20q2 13 -6 24l-84 120q40 17 65 53q24 35 25 81q-2 61 -42 102q-41 40 -102 42h-112v0zM176 192h-112v160h112q34 -1 57 -23
q22 -23 23 -57q-1 -34 -23 -57q-23 -22 -57 -23v0z" />
    <glyph glyph-name="r" unicode="R" horiz-adv-x="320" 
d="M64 416q-27 -1 -45 -19v0q-18 -18 -19 -45v-192v-160q0 -14 9 -23t23 -9t23 9t9 23v128h95l103 -146q8 -11 20 -14q13 -2 24 6t14 20q2 13 -6 24l-84 120q40 17 65 53q24 35 25 81q-2 61 -42 102q-41 40 -102 42h-112v0zM176 192h-112v160h112q34 -1 57 -23
q22 -23 23 -57q-1 -34 -23 -57q-23 -22 -57 -23v0z" />
    <glyph glyph-name="s" unicode="s" horiz-adv-x="320" 
d="M99 343q-30 -13 -34 -40q-3 -20 2 -29q4 -10 17 -19q29 -18 85 -32v0q2 -1 3 -1q25 -7 52 -16q26 -10 49 -25q24 -16 38 -45q13 -30 7 -66q-14 -64 -72 -88q-55 -22 -124 -10v0v0q-19 3 -43 11q-25 7 -45 14q-5 2 -9 3q-2 1 -3 1q-13 5 -19 17q-5 11 -1 24t16 19
q11 5 24 1q7 -2 16 -5q1 0 2 -1q20 -6 39 -13q20 -6 33 -8q57 -8 89 6q30 13 34 40q3 20 -2 29q-4 10 -17 19q-29 18 -85 32v0q-2 1 -3 1q-25 7 -52 16q-26 10 -49 25q-24 16 -38 45q-13 30 -7 66l32 -5l-32 5q14 64 72 87q55 23 124 11q11 -1 32 -6q22 -4 34 -7
q13 -4 20 -15q6 -11 3 -24q-4 -13 -15 -20q-11 -6 -24 -3q-10 3 -30 6l-30 6l5 31l-5 -31q-57 8 -89 -7v1z" />
    <glyph glyph-name="s" unicode="S" horiz-adv-x="320" 
d="M99 343q-30 -13 -34 -40q-3 -20 2 -29q4 -10 17 -19q29 -18 85 -32v0q2 -1 3 -1q25 -7 52 -16q26 -10 49 -25q24 -16 38 -45q13 -30 7 -66q-14 -64 -72 -88q-55 -22 -124 -10v0v0q-19 3 -43 11q-25 7 -45 14q-5 2 -9 3q-2 1 -3 1q-13 5 -19 17q-5 11 -1 24t16 19
q11 5 24 1q7 -2 16 -5q1 0 2 -1q20 -6 39 -13q20 -6 33 -8q57 -8 89 6q30 13 34 40q3 20 -2 29q-4 10 -17 19q-29 18 -85 32v0q-2 1 -3 1q-25 7 -52 16q-26 10 -49 25q-24 16 -38 45q-13 30 -7 66l32 -5l-32 5q14 64 72 87q55 23 124 11q11 -1 32 -6q22 -4 34 -7
q13 -4 20 -15q6 -11 3 -24q-4 -13 -15 -20q-11 -6 -24 -3q-10 3 -30 6l-30 6l5 31l-5 -31q-57 8 -89 -7v1z" />
    <glyph glyph-name="t" unicode="t" horiz-adv-x="384" 
d="M32 416q-14 0 -23 -9v0q-9 -9 -9 -23t9 -23t23 -9h128v-352q0 -14 9 -23t23 -9t23 9t9 23v352h128q14 0 23 9t9 23t-9 23t-23 9h-160h-160v0z" />
    <glyph glyph-name="t" unicode="T" horiz-adv-x="384" 
d="M32 416q-14 0 -23 -9v0q-9 -9 -9 -23t9 -23t23 -9h128v-352q0 -14 9 -23t23 -9t23 9t9 23v352h128q14 0 23 9t9 23t-9 23t-23 9h-160h-160v0z" />
    <glyph glyph-name="u" unicode="u" horiz-adv-x="384" 
d="M32 416q14 0 23 -9v0q9 -9 9 -23v-224q1 -54 37 -91q37 -36 91 -37q54 1 91 37q36 37 37 91v224q0 14 9 23t23 9t23 -9t9 -23v-224q-2 -82 -56 -136t-136 -56q-82 2 -136 56t-56 136v224q0 14 9 23t23 9v0z" />
    <glyph glyph-name="u" unicode="U" horiz-adv-x="384" 
d="M32 416q14 0 23 -9v0q9 -9 9 -23v-224q1 -54 37 -91q37 -36 91 -37q54 1 91 37q36 37 37 91v224q0 14 9 23t23 9t23 -9t9 -23v-224q-2 -82 -56 -136t-136 -56q-82 2 -136 56t-56 136v224q0 14 9 23t23 9v0z" />
    <glyph glyph-name="v" unicode="v" horiz-adv-x="384" 
d="M20 413q12 5 24 1v0q12 -5 18 -18l130 -313l131 313q5 13 17 18q12 4 24 -1q13 -5 18 -17q4 -12 0 -24l-160 -384q-9 -19 -30 -20q-21 1 -29 20l-160 384q-5 12 -1 24q5 12 18 17v0z" />
    <glyph glyph-name="v" unicode="V" horiz-adv-x="384" 
d="M20 413q12 5 24 1v0q12 -5 18 -18l130 -313l131 313q5 13 17 18q12 4 24 -1q13 -5 18 -17q4 -12 0 -24l-160 -384q-9 -19 -30 -20q-21 1 -29 20l-160 384q-5 12 -1 24q5 12 18 17v0z" />
    <glyph glyph-name="w" unicode="w" horiz-adv-x="576" 
d="M21 414q13 4 24 -1v0q12 -5 17 -18l110 -294l85 292q8 22 31 23q23 -1 31 -23l85 -292l110 294q5 13 17 18q11 5 24 1q13 -5 18 -17q5 -11 1 -24l-144 -384q-9 -21 -31 -21q-23 2 -30 23l-81 279l-81 -279q-8 -21 -30 -23q-22 0 -31 21l-144 384q-4 13 1 24q5 12 18 17v0
z" />
    <glyph glyph-name="w" unicode="W" horiz-adv-x="576" 
d="M21 414q13 4 24 -1v0q12 -5 17 -18l110 -294l85 292q8 22 31 23q23 -1 31 -23l85 -292l110 294q5 13 17 18q11 5 24 1q13 -5 18 -17q5 -11 1 -24l-144 -384q-9 -21 -31 -21q-23 2 -30 23l-81 279l-81 -279q-8 -21 -30 -23q-22 0 -31 21l-144 384q-4 13 1 24q5 12 18 17v0
z" />
    <glyph glyph-name="x" unicode="x" horiz-adv-x="384" 
d="M377 363q8 11 7 24v0q-1 13 -11 22q-11 8 -24 7t-22 -12l-135 -162l-135 162q-9 11 -22 12t-23 -7q-11 -9 -12 -22t7 -24l143 -171l-143 -172q-8 -10 -7 -23t12 -22q10 -8 23 -7t22 11l135 163l135 -163q9 -10 22 -11t24 7q10 9 11 22t-7 23l-143 172l143 171v0z" />
    <glyph glyph-name="x" unicode="X" horiz-adv-x="384" 
d="M377 363q8 11 7 24v0q-1 13 -11 22q-11 8 -24 7t-22 -12l-135 -162l-135 162q-9 11 -22 12t-23 -7q-11 -9 -12 -22t7 -24l143 -171l-143 -172q-8 -10 -7 -23t12 -22q10 -8 23 -7t22 11l135 163l135 -163q9 -10 22 -11t24 7q10 9 11 22t-7 23l-143 172l143 171v0z" />
    <glyph glyph-name="y" unicode="y" horiz-adv-x="384" 
d="M58 403q-8 10 -21 13v0q-12 2 -24 -6q-10 -8 -13 -21q-2 -12 6 -24l154 -215v-150q0 -14 9 -23t23 -9t23 9t9 23v150l154 215q8 12 6 24q-3 13 -13 21q-12 8 -24 6q-13 -3 -21 -13l-134 -188l-134 188v0z" />
    <glyph glyph-name="y" unicode="Y" horiz-adv-x="384" 
d="M58 403q-8 10 -21 13v0q-12 2 -24 -6q-10 -8 -13 -21q-2 -12 6 -24l154 -215v-150q0 -14 9 -23t23 -9t23 9t9 23v150l154 215q8 12 6 24q-3 13 -13 21q-12 8 -24 6q-13 -3 -21 -13l-134 -188l-134 188v0z" />
    <glyph glyph-name="z" unicode="z" horiz-adv-x="384" 
d="M0 384q0 14 9 23v0q9 9 23 9h320q20 -1 29 -18q8 -19 -4 -35l-277 -331h252q14 0 23 -9t9 -23t-9 -23t-23 -9h-320q-20 1 -29 18q-8 19 4 34l277 332h-252q-14 0 -23 9t-9 23v0z" />
    <glyph glyph-name="z" unicode="Z" horiz-adv-x="384" 
d="M0 384q0 14 9 23v0q9 9 23 9h320q20 -1 29 -18q8 -19 -4 -35l-277 -331h252q14 0 23 -9t9 -23t-9 -23t-23 -9h-320q-20 1 -29 18q-8 19 4 34l277 332h-252q-14 0 -23 9t-9 23v0z" />
    <glyph glyph-name="firefox-browser" unicode="&#xe007;" horiz-adv-x="512" 
d="M130 320v0v0v0zM482 275q-9 20 -22 37v0q-14 18 -27 25q20 -42 24 -74v-1q-12 31 -29 53q-16 22 -35 42q-25 27 -48 62q-13 22 -12 24q0 1 -1 1v0q-35 -21 -56 -55t-27 -68q-25 -1 -48 -12q-2 -1 -3 -3t0 -4q0 -2 1 -3q0 -1 2 -1q1 -1 2 -1h2h1q24 11 50 12q47 -2 73 -24
q26 -23 34 -39q-10 8 -26 13q-15 4 -33 2q44 -25 51 -70q8 -45 -20 -83q-27 -37 -88 -36q-45 3 -71 31q-27 28 -30 59q-1 3 15 21q15 19 66 21q7 1 17 12q11 10 12 15q0 1 -11 7q-11 5 -25 12q-14 8 -23 16q-1 2 -2 3l-14 14q-4 2 -7 4q-8 30 0 60q-38 -19 -59 -45v0
q-7 11 -8 32q-2 20 -1 29l-4 -2q-3 -2 -4 -3q-13 -9 -24 -20q-13 -13 -29 -38q-17 -25 -26 -63q-4 -16 -5 -31q-2 -15 -2 -22q1 -68 33 -123q33 -55 88 -87q55 -33 123 -34q92 2 159 59q66 56 81 144q7 53 -1 88q-9 35 -13 43v1v0z" />
    <glyph glyph-name="ideal" unicode="&#xe013;" horiz-adv-x="576" 
d="M126 283q-32 -2 -46 -31q-11 -30 11 -53q23 -22 53 -11q29 14 31 45q-1 21 -15 35t-34 15v0zM86 22h79v141h-79v-141zM238 234q-1 14 -6 19v0q-6 4 -13 3h-14v-46h14q7 0 13 4q5 5 6 20v0zM439 188v91h23v-69h34q-6 62 -35 95q-30 33 -73 45t-88 12h-95v-83h14
q40 -2 41 -45q-1 -45 -41 -46h-14v-166h95q107 1 152 46q44 45 44 120h-57zM330 188h-57v91h55v-23h-32v-10h30v-23h-30v-13h34v-22zM404 188l-5 17h-30l-5 -17h-24l28 91h32l28 -91h-24zM300 416h-268v-448h268q122 0 186 58q64 57 65 167q1 43 -17 95q-18 51 -72 89
q-55 37 -162 39v0zM300 -11h-247v406h247q107 0 168 -50q61 -49 62 -152q-1 -101 -60 -152q-58 -52 -170 -52v0zM384 254l-8 -26h16l-7 26h-1z" />
    <glyph glyph-name="microblog" unicode="&#xe01a;" 
d="M399 86q46 53 47 126q-2 86 -65 144q-62 58 -157 60q-95 -2 -157 -60q-63 -58 -65 -144q2 -87 65 -145q62 -58 157 -60q41 0 79 14q5 1 9 -3q29 -38 79 -50q4 0 6 4q0 2 -1 3q-19 25 -18 56t22 55h-1zM330 236l-58 -44l21 -69q1 -4 -2 -7q-4 -2 -8 0l-59 41l-59 -41
q-4 -2 -8 0q-3 3 -2 7l21 69l-58 44q-3 2 -2 7q2 4 6 4l72 2l24 68q1 4 6 4q4 0 6 -4l24 -68l72 -2q4 0 6 -4q1 -5 -2 -7v0z" />
    <glyph glyph-name="square-pied-piper" unicode="&#xe01e;" 
d="M32 29l-32 -60l1 328q1 50 35 84q33 34 84 35h327q-71 -23 -138 -67q-67 -45 -116 -102q-51 -59 -88 -109q-36 -50 -73 -109v0zM448 416q-2 0 -39 -21v0q-36 -21 -80 -58v0q-43 -38 -67 -88q-11 -26 -19 -54q-9 -30 -20 -57q-12 -27 -32 -48q-32 -26 -72 -41
q-17 -7 -34 -15q-18 -10 -44 -28q-25 -18 -41 -38h329q51 1 84 35q34 34 35 84v52v113v113v51v0z" />
    <glyph glyph-name="unity" unicode="&#xe049;" 
d="M244 356l80 -46q4 -4 0 -8l-95 -56q-5 -2 -9 0l-96 56q-4 4 0 8l80 46v92l-204 -119v-239l78 46v93q2 6 7 4l95 -56q5 -2 5 -7v-112q-1 -5 -7 -4l-80 47l-78 -46l204 -119l204 119l-78 46l-80 -47q-6 -1 -7 4v112q0 5 5 7l95 56q5 2 7 -4v-93l78 -46v239l-204 119v-92v0z
" />
    <glyph glyph-name="dailymotion" unicode="&#xe052;" 
d="M299 181q-11 6 -24 6q-20 0 -34 -13q-13 -13 -13 -33q0 -22 13 -35q13 -14 33 -14q21 0 34 14q14 14 14 35q0 12 -6 23t-17 17v0zM0 416v-448h448v448h-448zM375 43h-53v24h-1q-16 -27 -56 -27q-27 0 -49 14q-21 13 -33 35q-11 23 -11 51t11 50q12 23 33 36q22 13 48 13
q16 0 30 -5q13 -5 25 -17v78l56 12v-264z" />
    <glyph glyph-name="square-instagram" unicode="&#xe055;" 
d="M224 245q-35 -1 -49 -33q-12 -32 11 -58q26 -23 58 -11q32 14 33 49q0 22 -15 38q-16 15 -38 15v0zM349 286q-9 22 -31 31q-14 5 -38 6q-25 1 -45 0h-11h-11q-21 1 -45 0t-38 -6q-22 -9 -31 -31q-5 -14 -6 -38q-1 -25 0 -45v-11v-11q-1 -20 0 -44q1 -25 6 -39
q9 -22 31 -31q14 -5 38 -6q25 -1 45 0h11h11q21 -1 45 0t38 6q22 9 31 31q5 14 6 38t0 45v11v11q1 21 0 45t-6 38v0zM224 110q-25 0 -46 14v0q-20 13 -30 37q-9 23 -4 47q4 24 22 42t42 22q24 5 47 -4q24 -10 37 -30q14 -21 14 -46q0 -34 -24 -58t-58 -24v0zM309 258
q-12 1 -17 12q-5 12 4 21q9 8 21 4q11 -5 12 -18q-1 -7 -6 -13q-6 -6 -14 -6v0zM400 416h-352q-20 0 -34 -14t-14 -34v-352q0 -20 14 -34t34 -14h352q20 0 34 14t14 34v352q0 20 -14 34t-34 14v0zM383 126q0 -39 -26 -67q-28 -26 -67 -26q-14 -1 -40 -1h-52t-40 1
q-39 0 -67 26q-26 28 -26 67q-1 14 -1 40v52t1 40q0 39 26 67q28 26 67 26q14 1 40 1h52t40 -1q39 0 67 -26q26 -28 26 -67q1 -14 1 -40v-52t-1 -40v0z" />
    <glyph glyph-name="mixer" unicode="&#xe056;" horiz-adv-x="512" 
d="M115 372q-13 16 -33 18t-35 -12q-13 -12 -14 -30q-1 -17 9 -32l92 -123l-92 -125q-11 -15 -10 -32q1 -18 15 -30q15 -14 35 -12t32 18l129 173q4 7 0 15zM470 68l-92 125l92 123q10 15 9 32q-1 18 -14 30q-15 14 -35 12t-33 -18l-128 -172q-4 -7 0 -14l129 -174
q12 -16 32 -18t36 12q13 12 14 30q1 17 -10 32v0z" />
    <glyph glyph-name="shopify" unicode="&#xe057;" 
d="M388 344q0 3 -4 4h-19q-16 1 -18 1q-1 1 -12 11t-18 18v-433l126 31q-1 3 -9 57t-18 126q-11 72 -19 126q-8 55 -9 59v0zM289 378q-3 9 -8 17q-16 31 -44 31h-4l-1 1l-1 1q-12 13 -30 12q-38 -2 -68 -49q-21 -35 -26 -70q-45 -13 -48 -15q-10 -2 -12 -5q-3 -3 -4 -13
q0 -6 -6 -50q-6 -43 -13 -99t-13 -98q-5 -42 -6 -45l303 -52v438h-5l-14 -4v0zM233 360q-12 -4 -26 -8v0q-12 -4 -24 -7q8 30 25 50q7 7 17 13q10 -25 8 -48v0zM201 424q7 0 14 -4q-10 -5 -19 -14q-23 -28 -31 -67q-22 -7 -42 -13q7 32 28 63q21 32 50 35v0zM154 203
q3 -14 25 -25v0q16 -9 31 -24v0q15 -15 17 -42q2 -36 -16 -58t-49 -25q-37 0 -56 12q-20 12 -20 14v0l11 44q1 -1 16 -10t32 -9q10 1 15 8q4 6 4 12q-4 21 -25 32q-12 8 -23 20q-11 13 -13 35q-3 37 21 65q23 28 73 33q20 1 30 -2q10 -2 10 -3l-16 -57l-11 3q-10 4 -26 3
q-22 -2 -26 -12q-5 -9 -4 -14v0zM249 365q1 20 -7 44q14 -4 21 -15q8 -12 10 -22q-10 -3 -24 -7v0z" />
    <glyph glyph-name="deezer" unicode="&#xe077;" horiz-adv-x="576" 
d="M451 203h125v73h-125v-73zM451 377v-72h125v72h-125zM451 102h125v73h-125v-73zM0 1h125v73h-125v-73zM150 1h125v73h-125v-73zM301 1h125v73h-125v-73zM451 1h125v73h-125v-73zM301 102h125v73h-125v-73zM150 102h125v73h-125v-73zM150 203h125v73h-125v-73z" />
    <glyph glyph-name="edge-legacy" unicode="&#xe078;" horiz-adv-x="512" 
d="M26 220v0v0v0zM486 204q2 66 -29 123q-31 55 -82 84q-52 29 -116 29q-105 -3 -164 -67q-58 -64 -69 -153q32 48 87 84q56 37 133 41q3 1 28 -4q26 -4 51 -27q24 -22 21 -74h-176q5 28 14 46q8 19 20 33q-57 -26 -89 -72q-32 -47 -31 -116q1 -55 34 -103q33 -47 86 -69
q66 -22 134 -12t106 33v105q-43 -29 -106 -36q-63 -8 -113 16q-49 24 -53 87h314v52v0z" />
    <glyph glyph-name="google-pay" unicode="&#xe079;" horiz-adv-x="640" 
d="M106 233v-41h57q-4 -21 -21 -33q-15 -10 -36 -10t-37 12q-16 13 -23 32q-6 21 0 41v0q7 20 23 32t37 12q23 1 40 -16l30 31q-29 28 -70 28q-31 -1 -56 -16q-25 -16 -39 -43q-22 -48 0 -96v-1q14 -27 39 -43q25 -15 56 -16q43 1 70 26q30 29 31 79q0 11 -2 22h-99z
M495 237q-15 14 -41 14q-34 0 -51 -25l21 -13q12 17 31 17q13 0 23 -9q10 -8 10 -21v-6q-14 8 -35 8q-25 0 -39 -12q-15 -11 -15 -31q0 -19 14 -31q14 -13 35 -13q24 0 39 22h1v-18h22v79q0 25 -15 39v0zM476 148q-11 -11 -27 -11q-10 -1 -18 6q-8 6 -8 15q0 11 10 18
q9 7 24 7q20 0 31 -9q0 -15 -12 -26v0zM382 290q-17 16 -40 16h-63v-187h24v76h39q24 0 40 16q1 0 1 1l2 2q15 16 14 38t-17 38v0zM366 227q-10 -9 -24 -9h-39v65h39q13 0 23 -9q9 -10 10 -23q0 -13 -9 -23v-1zM614 247l-36 -92h-1l-37 92h-26l52 -120l-29 -64h24l79 184
h-26z" />
    <glyph glyph-name="rust" unicode="&#xe07a;" horiz-adv-x="512" 
d="M509 198l-22 14q-1 3 -1 6l19 17q3 3 2 7t-5 5l-24 9v1q0 2 -1 5l15 21q2 3 1 7q-2 4 -6 4l-25 5h-1q-1 2 -2 5l10 23q2 4 0 7q-2 4 -6 4l-26 -1l-4 4l6 25q1 4 -2 7t-7 2l-25 -6l-4 4l1 25q0 5 -4 7q-3 2 -7 0l-23 -10q-3 1 -5 2l-5 26q0 4 -4 6q-4 1 -7 -1l-21 -15
q-3 1 -6 1l-9 24q-1 4 -5 5t-7 -2l-17 -19q-3 0 -6 1l-14 22q-2 3 -6 3t-6 -3l-14 -22q-3 -1 -6 -1l-17 19q-3 3 -7 2t-5 -5l-9 -24h-2q-2 -1 -4 -1l-21 15q-3 2 -7 1q-4 -2 -4 -6l-5 -25v-1q-2 -1 -5 -2l-23 10q-4 2 -7 0q-4 -3 -4 -7l1 -25v-1q-2 -1 -4 -3l-25 6
q-4 1 -7 -2t-2 -7l6 -25l-4 -4h-25q-5 1 -7 -3q-2 -3 0 -7l10 -23q-1 -3 -2 -5h-1l-25 -5q-4 0 -6 -4q-1 -4 1 -7l15 -21q0 -2 -1 -5v-1l-24 -9q-4 -1 -5 -5t2 -7l19 -17q0 -3 -1 -6l-22 -14q-3 -2 -3 -6t3 -6l22 -14q1 -3 1 -6l-19 -17q-3 -3 -2 -7t5 -5l24 -9v-2
q1 -2 1 -4l-15 -21q-2 -3 -1 -7q2 -4 6 -4l25 -5h1q1 -3 2 -5l-10 -23q-2 -4 0 -7q2 -4 7 -4l25 1l4 -4l-6 -25q-1 -4 2 -7t7 -2l25 6l4 -4l-1 -26q0 -4 4 -6q3 -2 7 0l23 10q2 -1 5 -2v-1l5 -25q0 -4 4 -6q4 -1 7 1l21 15q2 0 4 -1h2l9 -24q1 -4 5 -5t7 2l17 19q3 0 6 -1v0
l14 -21q2 -4 6 -4t6 4l14 21q3 1 6 1l17 -19q3 -3 7 -2t5 5l9 24h2q2 1 4 1l21 -15q3 -2 7 -1q4 2 4 6l5 25q0 1 1 1l4 2l23 -10q4 -2 7 0q4 2 4 6l-1 26l4 4l25 -6q4 -1 7 2t2 7l-6 25l4 4l26 -1q4 0 6 4q2 3 0 7l-10 23l2 4q0 1 1 1l25 5q4 0 6 4q1 4 -1 7l-15 21q1 3 1 6
l24 9q4 1 5 5t-2 7l-19 17q0 3 1 6l21 14q4 2 4 6t-4 6h1zM358 69q-13 2 -17 -11l-8 -35q-37 -17 -78 -17q-40 0 -78 18l-8 35q-1 6 -6 9q-4 3 -10 2l-32 -7q-8 9 -16 19h153q3 0 3 2v54q0 3 -3 2h-45l1 35h48q4 0 14 -4t16 -22q1 -5 3 -13q3 -17 6 -27q2 -8 10 -17
q7 -9 17 -10h79q-8 -10 -17 -20zM383 35q-1 -14 -15 -16q-14 2 -15 16q1 14 15 15v0q14 -2 15 -15v0zM158 35q-2 -14 -16 -15q-14 1 -15 15q1 14 15 16h1q13 -2 15 -16v0zM70 214l32 14q6 3 8 8q2 6 -1 11l-6 15h26v-120h-53q-10 35 -6 72v0zM58 250q0 6 5 11q4 4 11 4v0
q14 -2 15 -15q-2 -14 -16 -15q-13 1 -15 15v0zM213 225l1 36h63q3 0 13 -4q9 -4 10 -15q-1 -9 -9 -13q-9 -4 -19 -4h-59zM399 141q-17 0 -22 10q-4 23 -11 33q-8 10 -19 18l-1 1q15 9 27 22q11 13 12 31q-1 19 -10 31q-10 13 -20 19q-13 8 -24 10q-12 3 -16 3h-199
q43 47 105 59l24 -25q4 -4 9 -4q6 0 10 4l27 25q41 -8 74 -32q33 -23 54 -60l-18 -40q-4 -12 7 -18l35 -16q1 -16 0 -32h-19q-3 0 -3 -3v-9q0 -15 -7 -21q-7 -5 -15 -6v0zM240 388q1 14 15 15h1q13 -2 14 -16q-1 -13 -15 -14q-14 1 -15 15v0zM437 234q-9 0 -13 8q-4 7 0 15
q4 7 13 7v0q14 -1 15 -15q-1 -14 -15 -15v0z" />
    <glyph glyph-name="tiktok" unicode="&#xe07b;" 
d="M448 238q-68 0 -123 39v-178q0 -52 -29 -93q-28 -41 -76 -60q-49 -17 -97 -5t-83 51q-33 39 -39 89q-5 49 19 95q25 45 69 68q45 22 96 16v-90q-24 7 -46 -1q-22 -7 -37 -27q-14 -20 -14 -44q0 -23 14 -44q15 -19 38 -26q22 -8 46 0q23 8 37 27t14 44v349h88q0 -11 2 -22
v0q11 -51 54 -80q31 -20 67 -21v-87z" />
    <glyph glyph-name="unsplash" unicode="&#xe07c;" 
d="M448 218v-250h-448v250h141v-125h166v125h141zM307 416h-166v-125h166v125z" />
    <glyph glyph-name="cloudflare" unicode="&#xe07d;" horiz-adv-x="640" 
d="M408 128l-231 3q-2 0 -4 2q-1 2 0 4q1 4 5 4l233 3q22 2 41 16t27 35l14 34v3v2q-17 67 -77 101q-62 31 -127 6q-64 -26 -88 -91q-18 13 -39 13q-21 1 -40 -11q-18 -13 -25 -32q-8 -20 -3 -42q-40 -2 -67 -29q-26 -27 -27 -67q0 -7 1 -14q1 -4 4 -4h427v0v0q4 0 5 4l3 11
q6 21 -4 35q-9 13 -28 14v0zM514 227h-7q-2 -1 -3 -3l-9 -31q-6 -21 4 -35q10 -13 28 -14l50 -3q2 0 3 -2t1 -4q-2 -4 -6 -4l-51 -3q-21 -1 -40 -16q-19 -14 -28 -35l-4 -9q0 -2 1 -3q0 -1 2 -1v0v0h176q3 0 4 3q5 17 5 34q-1 54 -37 89q-36 36 -89 37v0z" />
    <glyph glyph-name="guilded" unicode="&#xe07e;" 
d="M443 384h-438q0 -78 13 -134t30 -88q33 -64 74 -99t71 -49q30 -15 32 -14q85 32 141 103q20 26 38 64t28 82h-260q8 -56 45 -87h89q-14 -21 -35 -39q-21 -19 -46 -30q-24 10 -50 35q-25 24 -46 63q-20 42 -24 73t-4 33v0h337q6 43 5 87v0z" />
    <glyph glyph-name="hive" unicode="&#xe07f;" horiz-adv-x="512" 
d="M260 193l-128 222q-1 1 -2 1q-2 0 -2 -1l-128 -222v-2l129 -222q1 -1 2 -1t2 1l127 222q1 1 0 2v0zM299 219q1 -1 2 -1h67q1 0 2 1v2l-111 194q-1 1 -2 1h-66q-2 0 -2 -1q-1 -1 0 -2zM512 193l-127 222q-1 1 -2 1h-67q-1 0 -2 -1v-2l127 -221l-127 -221v-2q1 -1 2 -1h67
q1 0 2 1l127 222v2v0zM366 163h-66q-2 0 -2 -1l-109 -191q-1 -1 0 -2q0 -1 2 -1h66q1 0 2 1l109 191q1 1 0 2t-2 1v0z" />
    <glyph glyph-name="42-group" unicode="&#xe080;" horiz-adv-x="640" 
d="M320 352v-320q32 0 61 12q30 12 52 35q23 22 35 52q12 29 12 61t-12 61q-12 30 -35 52q-22 23 -52 35q-29 12 -61 12v0zM0 192l160 -160l160 160l-160 160l-160 -160v0zM480 192q0 -32 12 -61q12 -30 35 -52q22 -23 52 -35q29 -12 61 -12v320q-66 -1 -113 -47
q-46 -47 -47 -113v0z" />
    <glyph glyph-name="instalod" unicode="&#xe081;" horiz-adv-x="512" 
d="M153 -32h234l116 204l-299 -57zM505 208l-118 208h-231l204 -236zM124 399l-117 -207l116 -205l103 295z" />
    <glyph glyph-name="octopus-deploy" unicode="&#xe082;" horiz-adv-x="512" 
d="M456 99q-33 29 -33 60v0q0 31 17 68q17 44 6 88t-41 77q-31 34 -75 48q-72 20 -137 -9q-65 -30 -93 -100q-13 -36 -11 -74q3 -31 16 -58l8 -22q11 -38 -13 -68q-23 -31 -54 -50q-34 -22 -32 -31t24 -10q34 -2 65 15l4 2q11 5 24 12q13 8 17 14l-4 -8q-10 -21 -19 -47
q-8 -26 2 -47q10 -17 26 -7q16 9 30 27q15 17 20 26q2 3 5 8q11 19 28 39q17 19 31 0q11 -21 14 -47q2 -33 22 -58q16 -16 28 -9q11 6 17 23q6 16 6 30v8q-1 14 0 32t8 27q6 8 22 -7q7 -7 16 -17q15 -19 33 -35q19 -16 40 -15q20 5 8 27q-13 23 -28 41q-7 8 -9 11
q4 -3 17 -10q12 -7 24 -9t13 10q0 10 -10 20q-10 9 -21 17q-7 4 -11 8v0z" />
    <glyph glyph-name="perbyte" unicode="&#xe083;" 
d="M305 163h-58v-98h58q25 0 39 13q13 14 13 37q0 21 -14 35q-14 13 -38 13v0zM149 319h-58v-98h58q25 0 39 13q13 14 13 36t-14 36q-14 13 -38 13v0zM367 416h-286q-33 -1 -57 -24q-23 -24 -24 -57v-286q1 -33 24 -57q24 -23 57 -24h286q33 1 57 24q23 24 24 57v286
q-1 33 -24 57q-24 23 -57 24v0zM430 49q0 -26 -18 -45q-19 -18 -45 -18h-286q-26 0 -45 18q-18 19 -18 45v286q0 26 18 45q19 18 45 18h286q26 0 45 -18q18 -19 18 -45v-286zM305 319h-58v-98h58q25 0 39 13q13 14 13 36t-14 36q-14 13 -38 13v0z" />
    <glyph glyph-name="uncharted" unicode="&#xe084;" 
d="M172 215q3 0 5 3q3 15 15 26q1 1 1 4q0 2 -2 3l-117 69l75 43q5 3 5 8q0 6 -5 9l-22 12q-5 3 -10 0l-100 -58q-5 -2 -5 -8v-115q0 -6 5 -8l22 -13q3 -1 5 -1q4 0 7 2q3 3 3 7v85l116 -67q1 -1 2 -1v0zM323 70q-2 0 -5 -1l-74 -43v134q-1 6 -6 5q-15 -5 -29 -1q-3 1 -5 0
q-2 -2 -2 -4v-134l-74 43q-2 2 -5 2q-9 -1 -10 -10v-26q0 -5 5 -8l101 -58q2 -1 4 -1q3 0 5 1l101 58q4 3 5 8v26q-2 8 -11 9v0zM286 370q21 2 23 23q-2 21 -23 23q-21 -2 -23 -23q2 -21 23 -23v0zM350 380q-21 -2 -23 -23q2 -21 23 -23q21 2 23 23q-2 21 -23 23v0zM413 296
q21 2 23 23q-2 21 -23 23q-21 -2 -23 -23q2 -21 23 -23v0zM350 306q-21 -2 -23 -23q2 -21 23 -23q21 2 23 23q0 9 -7 16q-7 6 -16 7v0zM286 222q21 2 23 23q-2 21 -23 23q-21 -2 -23 -23q0 -9 7 -16t16 -7v0zM224 186q21 2 23 23q-2 21 -23 23q-21 -2 -23 -23q0 -9 7 -16
q6 -7 16 -7v0zM413 268q-21 -2 -23 -23q2 -21 23 -23q21 2 23 23q-2 21 -23 23v0zM413 196q-21 -2 -23 -23q2 -21 23 -23q21 2 23 23q-2 21 -23 23v0z" />
    <glyph glyph-name="watchman-monitoring" unicode="&#xe087;" horiz-adv-x="512" 
d="M256 432q-67 -1 -121 -33v0q-54 -32 -86 -86v0q-32 -54 -33 -121q1 -67 33 -121t86 -86t121 -33q67 1 121 33t86 86t33 121q-1 67 -33 121t-86 86t-121 33v0zM122 19q-40 30 -62 75v0q-23 45 -23 98q0 33 9 64l103 18v-11l-14 -2v-7v-13t5 -10l9 -7zM227 302l9 8q1 0 2 3
q2 3 -2 6q-7 5 -23 19q-15 14 -17 16v0q-6 9 -15 0q-2 -2 -17 -16q-16 -14 -23 -19q-4 -3 -3 -6q2 -3 3 -3l9 -8l-1 -4l-73 19q30 43 77 68q47 26 103 26q48 0 91 -19q42 -20 74 -56l-194 -37v3zM261 -27l-33 251l9 7q5 4 5 10v13v7l-14 2v11l241 -32q6 -25 6 -50
q-2 -92 -62 -153q-61 -62 -152 -66v0z" />
    <glyph glyph-name="wodu" unicode="&#xe088;" horiz-adv-x="640" 
d="M178 108h-37l-29 117v0l-29 -117h-38l-45 171h38l27 -116v0l30 116h35l29 -118h1l28 118h36zM271 235q30 0 47 -18v0q17 -17 18 -47q-1 -30 -18 -47q-17 -18 -47 -18q-29 0 -46 18q-17 17 -17 47t17 47q17 18 46 18v0zM271 131q18 0 24 12v0q7 12 7 27q0 16 -7 27
q-6 12 -24 13q-20 -1 -25 -13q-5 -11 -4 -27q-1 -15 6 -27q6 -12 23 -12v0zM435 124v0q-13 -20 -38 -19q-28 1 -42 20q-13 20 -13 46t13 45q14 18 41 19q24 0 37 -18v0v62h34v-171h-32v16zM405 210q-16 -1 -23 -12v0q-7 -12 -6 -28q-1 -15 7 -27q7 -12 22 -12q17 0 23 12
q7 12 7 27q0 16 -7 28q-6 11 -23 12v0zM593 108h-32v18h-1q-15 -21 -38 -21q-26 0 -36 14t-9 37v76h34v-70q-1 -30 22 -30q27 -1 26 35v65h34v-124zM602 145h38v-37h-38v37z" />
    <glyph glyph-name="notdef" unicode="&#xe1fe;" horiz-adv-x="384" 
d="M64 58l90 134l-90 134v-268v0zM103 0h179l-90 134l-89 -134v0zM231 192l89 -134v268l-89 -134v0zM282 384h-179l89 -134l90 134v0zM0 400q1 20 14 34v0q14 13 34 14h288q20 -1 34 -14q13 -14 14 -34v-416q-1 -20 -14 -34q-14 -13 -34 -14h-288q-20 1 -34 14
q-13 14 -14 34v416v0z" />
    <glyph glyph-name="wirsindhandwerk" unicode="&#xe2d0;" horiz-adv-x="512" 
d="M51 -32h83v112l-83 -47v-65zM380 -32h82v65l-82 47v-112zM380 416v-220l-124 73l-121 -73v220h-84v-361l205 123l206 -123v361h-82z" />
    <glyph glyph-name="bots" unicode="&#xe340;" horiz-adv-x="640" 
d="M86 250q-25 0 -41 -20v62q-1 7 -8 8h-29q-7 -1 -8 -8v-178q0 -3 2 -5q3 -3 6 -3h29q3 0 5 3q3 2 3 5v9q18 -20 41 -20q27 0 44 19q18 19 18 55q0 34 -18 54q-17 19 -44 19v0zM72 142q-17 1 -27 13v43q10 12 27 13q28 -2 31 -34q-3 -33 -31 -35v0zM228 201q-16 -1 -18 -17
q2 -16 18 -17q16 1 17 17q0 7 -5 12t-12 5v0zM274 291v45q9 5 8 15q-3 10 -13 11q-11 -1 -13 -11t8 -15v-45q-35 -2 -62 -23q-26 -20 -36 -54t1 -65q11 -32 39 -53q29 -20 63 -20q33 0 62 20q28 21 39 53q11 31 2 65q-10 34 -37 54q-26 21 -61 23v0zM360 184q-1 -24 -27 -39
v0q-25 -16 -64 -16t-65 16q-25 15 -26 39q1 23 26 39q26 16 65 16t64 -16q26 -16 27 -39v0zM310 167q16 1 17 17q-1 16 -17 17q-16 -1 -18 -17v0q2 -16 18 -17v0zM581 198h-1v0q-22 2 -22 9q1 10 18 10q19 0 35 -10q6 -3 11 3v0l9 15q3 7 -3 11q-24 14 -52 14q-30 0 -45 -14
q-15 -13 -15 -32q1 -26 19 -35q19 -9 38 -11q22 -2 24 -11q1 -10 -19 -11q-22 2 -42 14q-3 2 -6 1q-4 -1 -6 -3v-1l-10 -16q-3 -7 3 -12q24 -16 59 -16q31 0 47 13q17 13 17 33q-1 27 -20 37q-19 9 -38 11q-1 0 -1 1v0zM485 137q-3 6 -10 6q-2 -1 -4 -1q-12 1 -12 15v51h20
q7 0 8 8v23q-1 7 -8 8h-20v30q0 3 -3 6q-2 2 -6 2h-28q-3 0 -6 -2q-2 -3 -2 -6v0v-30h-15q-3 0 -6 -3q-2 -2 -2 -5v0v-23q1 -8 8 -8h15v-64q1 -41 44 -41q18 0 28 5q5 3 4 9z" />
    <glyph glyph-name="cmplid" unicode="&#xe360;" horiz-adv-x="640" 
d="M226 60q0 2 -2 3q-1 1 -2 1h-149q-10 0 -16 8t-2 18l27 102q7 24 32 26h149q4 1 6 6l11 41q1 3 -3 5h-1v0h-149q-34 -2 -60 -23q-27 -21 -37 -54l-27 -104q-9 -28 7 -52q18 -24 47 -25h3h149q5 1 6 5l11 41v2v0zM307 367v1q0 2 -1 3t-3 1v0v0h-41q-5 -1 -6 -5l-22 -81h51
zM180 80h52l31 122h-51zM512 368q-1 4 -4 4v0h-41q-5 0 -7 -5l-91 -350v-1q0 -3 4 -4v0h41q5 1 6 5l92 350v1v0zM325 64h-41q-5 -1 -7 -6l-10 -41q-1 0 -1 -1q0 -2 1 -3t3 -1v0h41q5 1 7 5l10 41q1 2 0 4q-1 1 -3 2v0v0zM636 372h-41q-5 -1 -6 -5l-92 -350v-1q0 -3 4 -4v0v0
h41q5 1 6 5l92 350v1q-1 4 -4 4v0v0zM372 223l10 41l1 1q-1 4 -4 4v0h-42q-4 -1 -6 -5l-11 -41v-2v0v0q0 -3 4 -3v0h41q5 0 7 5v0z" />
    <glyph glyph-name="bilibili" unicode="&#xe3d9;" horiz-adv-x="512" 
d="M489 344q25 -27 23 -66v-202q-1 -40 -27 -65q-25 -26 -65 -27h-328q-40 1 -65 27q-26 26 -27 69v198q1 39 27 66q25 25 65 26h29l-25 26q-9 8 -9 22q0 13 9 21q9 9 22 9t22 -9l73 -69h88l75 69q9 9 22 9t22 -9q8 -8 9 -21q-1 -14 -9 -22l-25 -26h29q40 -1 65 -26v0v0z
M450 274q-1 15 -11 24q-9 9 -23 9h-320q-14 0 -24 -9q-9 -9 -9 -24v-194q0 -14 9 -24q10 -9 24 -10h320q14 1 24 10q9 10 10 24v194v0zM186 231q9 -9 10 -23v-33q-1 -14 -10 -23q-9 -10 -24 -10q-14 0 -23 10q-10 9 -10 23v33q0 14 10 23q9 10 23 10t24 -10v0v0zM377 231
q9 -9 10 -23v-33q-1 -14 -10 -23q-9 -10 -23 -10q-15 0 -24 10q-10 9 -10 23v33q1 14 10 23q10 10 24 10t23 -10v0v0z" />
    <glyph glyph-name="golang" unicode="&#xe40f;" horiz-adv-x="640" 
d="M400 253l-10 -2v0q-10 -2 -19 -5q-5 -2 -10 -3q-6 -2 -13 -4h-1q-4 -2 -8 4q-6 7 -15 11q-30 14 -56 -4q-32 -21 -32 -59q0 -20 12 -33q11 -13 29 -16q33 -4 54 20l6 8v0v0q1 2 2 3v1h-60q-9 0 -6 9q4 8 8 18l8 16q1 4 7 6h101q7 20 22 40q32 43 87 52q48 10 89 -16
q37 -25 44 -70q8 -62 -37 -105q-30 -32 -74 -40q-8 -2 -16 -2v0q-5 -1 -9 -1v0q-43 0 -76 27q-23 20 -31 49q-5 -11 -14 -21q-32 -45 -88 -53q-46 -7 -84 20q-34 26 -39 69q-5 52 26 92q34 44 88 54q44 10 82 -16q25 -16 36 -44q3 -4 -3 -5v0zM48 248q-2 0 -1 1l7 9q1 1 3 1
h112q1 0 1 -2l-6 -8q-1 -2 -3 -2l-113 1v0zM1 219q-2 0 -1 1l7 9q1 1 3 1h142q2 0 2 -1l-3 -8q0 -2 -2 -2h-148v0zM76 192q-1 -1 1 -2h68q1 0 2 2v8q0 2 -1 2h-63q-2 0 -3 -2l-4 -8v0zM577 210v2v0v5q-5 24 -23 35t-41 6q-44 -9 -55 -54q-4 -18 4 -35q8 -16 25 -24
q26 -11 51 2q37 20 39 60v1v2v0z" />
    <glyph glyph-name="pix" unicode="&#xe43a;" horiz-adv-x="512" 
d="M242 155q10 9 21 0l77 -77q22 -21 53 -22h15l-97 -97q-24 -22 -55 -22t-55 22l-98 98h10q30 0 53 22l76 76v0zM263 229q-11 -8 -21 0l-76 77q-22 22 -53 22h-10l98 97q24 23 55 23t55 -23l97 -97h-15q-31 0 -53 -22l-77 -77v0zM113 305q21 0 37 -15l76 -77q12 -10 27 -11
q14 1 26 11l77 77q15 15 37 15h37l59 -58q22 -24 22 -55t-22 -55l-59 -58h-37q-22 0 -37 15l-77 77q-12 11 -27 11t-26 -11l-76 -76q-16 -15 -37 -16h-32l-58 58q-23 24 -23 55t23 55l58 58h32v0z" />
    <glyph glyph-name="sitrox" unicode="&#xe44a;" 
d="M212 448v0h236v-128h-384q3 54 48 90t100 38v0zM237 256v0q55 -2 100 -38q44 -36 47 -90h-173v0q-55 2 -100 38q-44 36 -47 90h173v0zM236 -64q55 2 100 38v0q45 36 48 90h-384v-128h236v0v0z" />
    <glyph glyph-name="hashnode" unicode="&#xe499;" horiz-adv-x="512" 
d="M35 277q-35 -37 -35 -85v0q0 -48 35 -85l136 -136q37 -35 85 -35t85 35l136 136q35 37 35 85t-35 85l-136 136q-37 35 -85 35t-85 -35l-136 -136v0zM316 132q-26 -24 -60 -24v0q-34 0 -59 24q-25 26 -25 60t25 59t59 25t60 -25q24 -25 24 -59t-24 -60v0z" />
    <glyph glyph-name="meta" unicode="&#xe49b;" horiz-adv-x="640" 
d="M640 130q0 -69 -29 -108v0q-28 -40 -81 -40q-45 -1 -79 30t-78 106l-32 53q-7 11 -13 22q-4 7 -8 13q-16 -27 -31 -54t-16 -29v0q-49 -86 -84 -115t-73 -26q-55 0 -85 39q-31 39 -31 106q1 73 25 136t65 102t94 41q37 0 72 -21t73 -69q27 39 59 64t71 26q50 -1 91 -39
q41 -37 65 -99t25 -138v0v0zM287 256q-31 46 -55 63v0q-25 18 -49 17q-31 -1 -57 -31t-41 -78t-16 -101q2 -74 50 -75q21 -2 42 20q22 21 61 83q0 1 17 28q18 27 48 74v0v0zM531 51q48 2 47 74q-1 96 -36 160q-34 63 -87 66q-47 0 -95 -78q14 -21 29 -46l38 -62
q42 -69 62 -92q21 -24 42 -22v0v0z" />
    <glyph glyph-name="padlet" unicode="&#xe4a0;" horiz-adv-x="640" 
d="M298 448v0q12 -1 18 -12l132 -308v0v-1l-3 -10l-43 -158q-3 -12 -13 -18q-10 -7 -22 -4l-69 15l-68 -15q-13 -3 -23 4q-10 6 -13 18l-43 158l-3 10v1l132 308q6 11 18 12v0v0zM160 126l131 -39l7 -123l8 122l131 39v0l-131 -25l-9 320l-5 -320l-132 26v0zM426 225l94 41
h74l-157 -247l32 109l-43 97v0zM598 267l41 -77q3 -6 -2 -10q-4 -4 -10 -2l-47 23l18 66v0zM127 129l32 -111l-157 275q-4 9 1 15q6 5 15 2l151 -85l-42 -96v0z" />
    <glyph glyph-name="nfc-directional" unicode="&#xe530;" horiz-adv-x="512" 
d="M212 -41q2 -4 1 -8q-1 -5 -5 -7q-4 -3 -8 -2q-95 23 -152 101q-56 80 -46 177q11 97 83 163q74 64 171 65q1 0 3 -1h1q1 0 2 -1t2 -1q2 -2 3 -4v-4v-101l25 26q1 1 3 2t5 1q2 0 4 -1q2 0 4 -2q1 -1 2 -4q1 -2 1 -4v-4q-1 -2 -3 -4l-44 -47q-1 -1 -3 -2q-3 -1 -6 -1
q-1 0 -3 1q-3 1 -4 2l-44 47q-3 4 -3 8q0 5 3 8q4 3 8 3q5 0 8 -3l25 -26v89q-87 -5 -151 -65q-62 -61 -70 -148q-7 -87 44 -158q24 -34 60 -57q35 -23 77 -33q4 -1 7 -5v0v0zM171 322q-1 -2 -3 -3q-31 -22 -48 -55q-18 -33 -18 -71t18 -70q17 -34 48 -56q4 -2 5 -7
q0 -3 -1 -7q0 -1 -1 -1q-3 -4 -7 -4q-5 -2 -8 1q-36 24 -57 62q-20 39 -20 82t20 82q21 38 57 62q1 2 4 2h2h2q2 0 4 -1q2 -2 3 -4q2 -1 2 -4q1 -2 0 -4q0 -2 -2 -4v0v0zM341 64q0 1 1 2v0q1 1 1 2v0q32 21 50 54q17 34 17 71q0 38 -17 71q-18 34 -50 55l-1 1t-1 2l-2 4t0 3
v1q1 3 2 4q0 1 1 1q0 2 2 2q2 2 4 2q3 1 5 0q2 0 4 -2q35 -24 56 -62q19 -39 19 -82t-19 -81q-21 -39 -56 -63l-4 -2h-5q-1 0 -2 1t-2 1q-2 1 -2 2q-1 0 -1 1l-2 4v1q-1 2 0 3q1 3 2 4v0v0zM312 442q87 -21 143 -89q46 -58 55 -131t-23 -140t-94 -107q-63 -39 -137 -39
q-2 0 -4 1l-4 2q-2 2 -2 3v1q-1 2 -1 4v99l-25 -26q-2 -2 -6 -3h-2q-4 0 -8 4q-3 2 -3 7t3 8l44 47q3 3 7 3q6 0 9 -3l44 -47q3 -3 3 -8t-3 -7q-4 -4 -8 -4h-2q-4 1 -6 3l-25 26v-87q87 5 151 65q62 62 71 148q6 87 -45 158q-52 70 -137 90q-2 0 -4 1q-1 2 -3 4v0q-2 2 -1 4
q-1 2 0 4q0 2 2 4q1 2 3 3l4 2h4v0v0zM353 192q-1 -49 -49 -84q-4 -2 -8 -2q-4 1 -7 4l-70 69q-4 4 -3 8q0 5 3 8q4 4 8 4q5 0 8 -4l63 -62q32 26 33 59q-1 37 -40 65q-4 3 -5 7q-1 5 2 9q3 3 7 4q5 1 9 -2q48 -35 49 -83v0v0zM217 106q-5 0 -9 2q-49 35 -50 84q1 48 50 83
q4 3 8 2q4 0 7 -3l70 -70q3 -3 3 -8q0 -4 -3 -7v-1q-4 -3 -8 -3q-5 0 -8 3l-63 63q-32 -26 -32 -59q0 -36 39 -65q4 -3 5 -8q1 -4 -2 -8t-7 -5v0v0z" />
    <glyph glyph-name="nfc-symbol" unicode="&#xe531;" horiz-adv-x="576" 
d="M393 416q12 1 21 -5q63 -45 97 -101q33 -56 33 -117q0 -63 -33 -119q-34 -56 -97 -101q-8 -6 -18 -5q-11 1 -19 9l-183 182q-9 9 -10 21q1 12 10 21q8 9 21 9q12 0 20 -9l166 -164q83 69 84 156q0 46 -27 90q-27 43 -77 79q-10 7 -12 19t5 22t19 13v0v0zM187 -32
q-12 -1 -22 5q-63 45 -96 101t-33 119q0 61 33 117t96 101q9 6 19 5q11 -1 19 -9l183 -182q9 -9 9 -21t-9 -21q-8 -9 -21 -9q-12 0 -21 9l-165 164q-83 -69 -84 -154q0 -48 27 -92q26 -44 76 -79q11 -7 13 -19t-5 -23q-7 -9 -19 -12v0v0z" />
    <glyph glyph-name="screenpal" unicode="&#xe570;" horiz-adv-x="512" 
d="M234 426q1 20 22 22q21 -2 23 -22q-2 -21 -23 -23q-21 2 -22 23v0zM313 189q0 -24 -16 -41v0q-17 -16 -41 -16t-41 16q-16 17 -16 41t16 41q17 16 41 16t41 -16q16 -17 16 -41v0zM337 98q34 31 40 77h120q-3 -46 -23 -88q-19 -41 -53 -73t-76 -49t-89 -17t-89 17
q-43 17 -76 49q-34 32 -53 73q-20 42 -23 88h120q6 -46 40 -77q35 -30 81 -31q46 1 81 31v0zM73 308q-1 -21 -22 -24q-20 2 -23 22q1 21 22 23q21 -1 23 -21v0zM439 307q2 21 22 22q21 -1 23 -22q-2 -21 -23 -23q-20 2 -22 23v0zM318 353q-27 -22 -62 -23q-35 1 -62 23
q-26 23 -32 57q22 10 47 15q0 -20 14 -34q13 -13 33 -14q20 1 34 14q13 14 13 34q25 -5 47 -15q-6 -34 -32 -57v0v0zM83 217q-33 -11 -66 1q3 24 11 47q8 -4 17 -6q10 -1 19 2q9 2 16 8q8 6 12 14q5 8 6 17q2 10 -1 19q-2 9 -8 16q-6 8 -14 13q16 18 36 33q27 -23 34 -57
q6 -34 -11 -65q-18 -30 -51 -42v0v0zM429 217q-33 12 -50 42q-18 31 -12 65q7 34 34 57q20 -15 36 -34q-17 -10 -22 -28q-5 -19 5 -36t29 -22q18 -5 35 4q8 -23 11 -47q-33 -13 -66 -1v0v0z" />
    <glyph glyph-name="space-awesome" unicode="&#xe5ac;" horiz-adv-x="512" 
d="M96 192h32v-256h-128v160h32v32h32v32h32v32v0zM512 96v-160h-128v256h32v-32h32v-32h32v-32h32v0zM320 384h32v-384h-32v32h-128v-32h-32v384h32v32h32v32h64v-32h32v-32v0zM288 320h-64v-64h64v64v0z" />
    <glyph glyph-name="square-font-awesome" unicode="&#xe5ad;" 
d="M385 415h-320q-28 0 -46 -18t-18 -46v-320q0 -27 18 -45t46 -19h320q27 1 45 19t19 45v320q-1 28 -19 46t-45 18v0zM337 135q-8 -2 -14 -4v0q-16 -6 -25 -9v0q-10 -3 -21 -3q-16 1 -27 5t-22 7q-11 4 -26 4t-25 -4v32q10 4 25 4q22 0 37 -7t38 -9q14 0 28 5v96
q-14 -5 -28 -5q-16 1 -27 5t-22 7q-11 4 -26 4q-22 0 -37 -7q-9 -4 -20 -7v-154q-2 -14 -16 -16q-15 2 -16 16v192q1 15 16 16q14 -1 16 -16v-6q11 3 20 7q15 7 37 7t37 -7t38 -9q11 0 21 3q9 3 25 9q6 2 14 4v-160v0z" />
    <glyph glyph-name="square-gitlab" unicode="&#xe5ae;" 
d="M48 416h352q20 -1 34 -14q13 -14 14 -34v-352q-1 -20 -14 -34q-14 -13 -34 -14h-352q-20 1 -34 14q-13 14 -14 34v352q1 20 14 34q14 13 34 14v0zM382 223l-44 116q-2 4 -5 6t-5 2q-3 0 -6 -1q-2 -1 -4 -3t-3 -5l-30 -92h-123l-29 92q-1 3 -3 5l-2 2t-2 1t-2 1q-2 1 -4 0
q-2 0 -5 -2t-4 -6l-45 -116l-1 -1q-9 -26 -2 -53q8 -26 30 -43v0h1l67 -51l55 -41q3 -2 8 -3q3 0 7 2q0 1 1 1l54 41l69 51v0q22 17 30 43q7 27 -2 53l-1 1v0z" />
    <glyph glyph-name="odysee" unicode="&#xe5c6;" horiz-adv-x="512" 
d="M407 -15q-65 -48 -151 -49q-85 1 -149 48q-64 46 -92 122q4 -3 8 -5q26 -8 63 29q10 10 23 17q27 18 58 28q1 -1 14 -23q13 -21 29 -52q12 -30 -4 -42q-16 -13 -23 -12h-2q-6 1 -22 -1t-28 -13t-6 -37q9 -28 34 -34t54 2q30 8 52 23q20 15 27 43q6 28 6 51q-1 23 -1 24
q30 3 43 -19q12 -21 15 -40q1 -7 1 -16v0q0 -17 6 -31q5 -14 29 -15q8 0 16 2v0zM311 9q-3 1 -3 5q2 3 5 3q4 -2 3 -5q-1 -4 -5 -3v0zM104 104q3 1 4 -3q0 -3 -3 -4q-2 0 -4 3q0 3 3 4v0zM452 27q58 69 60 165q0 51 -18 95q-18 45 -51 80q0 -37 -17 -70q-10 -16 -31 -39
q-22 -23 -38 -39q-1 -1 -2 -1v-1v0v0q-8 -13 3 -22q17 -12 36 -32t23 -41q4 -27 16 -51q12 -25 18 -35v0v0v0q1 -2 2 -2q0 -4 -1 -7v0v0zM391 197q-1 -5 4 -6t6 4t-4 6t-6 -4v0zM452 258l-11 -6l-3 -12l-6 11l-13 3l12 5l3 13l5 -11l13 -3v0zM396 407q-12 -7 -18 -23v0
q-7 -17 -11 -38v0v-1v0q-1 -1 -1 -2v-2q-8 -27 -21 -33q-12 -6 -21 -4v0h-2h-1q-6 -1 -9 17q-3 17 -18 64q-19 47 -55 46q-37 -1 -73 -24q-39 -27 -36 -69q3 -43 16 -81l2 -6q-7 -6 -25 -12h-1q-19 -6 -40 -17q-27 -14 -49 -33q-23 -18 -31 -30q-2 17 -2 33q1 72 35 129
q34 58 92 92q57 34 129 35q78 -1 140 -41v0zM59 258q-3 4 -6 2q-4 -3 -2 -7q3 -3 6 -1q4 3 2 6v0zM327 383q4 2 7 -1q2 -5 -2 -7q-3 -2 -6 2q-2 3 1 6v0zM95 343q0 -3 2 -3q3 -1 3 2q1 3 -2 3t-3 -2v0zM180 343q0 32 17 44v0q17 11 20 10q32 11 46 -1q13 -12 20 -36
q9 -23 0 -35q-8 -13 -38 -24q-31 -12 -47 1q-16 12 -18 42v-1zM269 329h1q5 0 5 5q3 10 -2 20q-2 4 -6 3q-5 -2 -3 -7q3 -7 1 -15q0 -5 5 -6h-1zM260 370q-4 0 -5 3q-1 2 -2 3t-1 2q-3 4 0 8q3 3 7 0q2 -4 4 -7q1 0 1 -1q2 -4 -3 -7h-1v-1v0v0v0z" />
    <glyph glyph-name="stubber" unicode="&#xe5c7;" 
d="M137 154l58 -23q7 28 20 44q13 17 35 17q17 0 31 -8q13 -8 27 -19q16 -14 36 -25t49 -12q25 -1 55 14v-62q-1 -48 -33 -79q-32 -32 -79 -33h-336l42 56l-42 56l42 56l-42 56l42 56l-42 56l42 56l-42 56h336q47 -1 79 -33t33 -79v-51q-7 -28 -20 -44q-13 -17 -35 -17
q-17 0 -31 8q-13 8 -27 20q-16 13 -36 24t-48 11q-29 2 -64 -18q-34 -20 -50 -83v0v0z" />
    <glyph glyph-name="debian" unicode="&#xe60b;" 
d="M248 447v0v0q-6 0 -11 -2l-4 1q9 1 17 1v0q2 1 5 1h2q-4 -1 -9 -1v0zM380 202q5 11 5 25l-4 -9q5 20 4 40q-1 9 0 18h-2q-3 35 -25 66q-23 30 -50 44q-24 10 -52 11q-29 2 -46 -6q3 2 7 3v0q6 1 4 3q-14 -1 -20 -4q-6 -2 -11 -5v0v0q-5 -5 -20 -9q-3 -4 6 -1v0q8 3 0 -2
q-6 -2 -10 -2v0q-6 0 -13 -3t-18 -14q2 -1 6 1v0q4 4 -2 -4q-16 -1 -38 -23q-23 -22 -31 -36l5 -1q-5 -12 -10 -21q-7 -12 -9 -21q-1 -8 -2 -17v-3v-1q-3 -21 -3 -42q-1 -21 7 -31l-2 -13q1 -2 2 -3v-1q2 -4 4 -7h-3q5 -16 8 -20q4 -3 7 -3v0q3 1 7 -3q5 -4 12 -21
q-4 0 -10 7q1 -9 13 -26l-3 -3q5 -8 9 -10v0v0l2 -2q-8 4 -2 -6q6 -9 14 -19q1 -2 2 -3q2 -3 3 -4l2 4q0 -9 13 -25l8 1q2 -5 9 -11q6 -6 11 -7l-4 -5q11 -4 13 -7q2 -2 16 -8l-4 8q5 -5 8 -9v0q7 -8 20 -15q15 -5 23 -6h1q7 -1 21 -5h-4h-3v0v0q0 1 -1 1q-25 -1 -45 5
q-50 13 -91 52q-42 38 -66 91t-22 112q-1 16 0 31q1 22 -2 28l1 3q7 26 24 63v0v1v0v0q0 -1 3 -1q2 0 6 6l2 6q1 2 2 3v0q3 10 8 18l3 1q1 7 10 17q9 9 20 18v0l1 1l13 13l1 -4q13 11 31 20t35 16v0q7 3 13 6q-3 -5 10 -1q8 2 16 2l-4 -2v0v0l-8 -4q11 2 15 0h1q4 -1 14 0
q-10 -2 -11 -4q11 0 17 1v0q8 3 20 0l-1 4q10 -3 17 -5l1 -1l14 -4q8 -3 20 -10q5 0 7 2h1q4 2 15 -2v-1q1 0 1 -1v0q0 -2 3 -4q2 -3 11 -8q1 2 -6 8l-1 1v0q25 -14 47 -39t31 -55q-4 8 -4 6q-1 -1 0 -6q1 -8 0 -8q7 -18 10 -37l-1 3v0q-2 9 -7 23t-13 26q-1 -5 -5 -3v0v0
q-3 1 -4 -1t2 -12q4 -4 4 -1v0q0 5 4 -5q1 -6 2 -13h1v0v0v0v0v0v0v-2l2 -8q-2 1 -4 4v0v0q-2 5 -3 3q4 -17 8 -18l-1 -1q-2 1 -2 -5q0 -10 2 -11q1 -2 3 -1v0q1 1 2 1q-1 -4 -3 -8v0q-6 -11 -3 -26q-2 4 -4 9v0v0v0v2q-1 1 -1 2q-1 -7 0 -11v-1q1 -6 -3 -19q3 11 3 18
q-1 6 -4 2q0 -16 -8 -29v0q-6 -10 -6 -19l-5 7q-9 -14 -6 -15v-1q2 -1 -4 -10q2 3 1 4v0q-1 0 2 5q-3 -1 -10 -8v0q-6 -7 -13 -12q-58 -44 -125 -18v0q0 1 -4 4q-28 20 -42 44q-14 23 -8 64q2 2 5 10v1v0q4 15 14 24q7 13 22 23q16 10 35 11q19 0 34 -8q16 -9 24 -20
q-15 14 -37 17t-43 -7t-33 -30q-11 -21 -9 -44h1v0v0q1 1 1 4q2 -47 38 -72t74 -10l1 -1q16 4 20 10v0q3 3 9 8q0 -2 -2 -3q-5 -4 -2 -5q4 2 13 9q8 6 16 14q1 0 1 1v0v0q3 2 4 4h1q2 6 1 7v0q-1 1 2 10l8 3q1 4 2 6q0 1 1 2v0h-1zM233 126v1h-1q-1 0 -1 -1t1 -1h1v1v0z
M233 126v-1q-1 -1 -1 -2q-18 9 -32 25q7 -11 17 -20q-11 6 -22 20v0v0v0q-7 8 -10 9q17 -28 52 -43t61 -6q-24 -2 -50 6q-12 7 -15 12v0zM238 441q6 -1 6 -2q11 2 -9 2h1h2v0zM330 233q-2 -5 -3 1v0v0q-1 2 -2 3q2 5 3 6q2 0 2 -10v0zM323 211q-2 -12 -10 -22q0 3 -3 3v0
q-2 0 -2 3q0 2 8 13q-1 -3 -4 -7v-1v0q-3 -5 -4 -7q0 -2 8 3l1 2q4 6 6 13v0zM280 171q-9 2 -14 4v0q-5 2 1 2q11 -1 21 2q-3 -4 -8 -8v0zM244 439v-1h-3l3 1v0zM175 166q5 -10 9 -16v0v0q3 -5 7 -12q-8 7 -13 15v1q-2 3 -5 6l2 6v0zM182 176v0v0q2 -5 6 -10l3 -7l-2 2
q-5 8 -8 16l1 -1v0zM421 217q-3 -26 -16 -50q11 22 15 47l1 3v0zM35 338h1h-1v0zM36 338q0 -2 2 -1q4 3 0 -7q-3 -2 -4 -3l-1 -1h-1h1v0q2 3 3 12v0zM25 296q-1 -6 -3 -14v5v0q-2 4 4 13q0 -2 -1 -4v0v0z" />
    <glyph glyph-name="threads" unicode="&#xe618;" 
d="M332 212q1 0 3 -1v0q1 -1 3 -2q44 -21 62 -61q12 -28 8 -67t-39 -76q-51 -53 -142 -53h-1q-105 1 -160 70q-49 62 -50 170v0v0q1 108 50 170q55 69 160 70h1q106 -1 162 -70q28 -34 41 -82l-41 -10q-10 38 -32 65q-44 54 -130 55q-86 -1 -129 -55q-39 -50 -40 -143
q1 -93 40 -143q43 -54 129 -55q74 0 113 41q24 25 27 51t-5 45q-10 22 -32 35q-6 -40 -25 -65q-26 -33 -73 -35q-36 -2 -64 16q-31 22 -34 59q-1 37 24 60q26 23 71 27q32 1 60 -3q-4 22 -15 35q-15 18 -46 18h-1q-13 0 -28 -5q-14 -6 -25 -22l-35 24q30 44 88 45h1
q96 -3 104 -108h-1h1zM176 143q1 -18 17 -27v0q17 -9 37 -8q20 0 38 14q17 14 22 59q-20 5 -44 5q-7 0 -14 -1q-32 -2 -45 -14q-13 -13 -11 -27v0v-1z" />
    <glyph glyph-name="square-threads" unicode="&#xe619;" 
d="M64 416q-27 -1 -45 -19v0q-18 -18 -19 -45v-320q1 -27 19 -45t45 -19h320q27 1 45 19t19 45v320q-1 27 -19 45t-45 19h-320v0zM294 204q30 -15 41 -41q9 -19 6 -45t-26 -51q-34 -35 -95 -35v0q-71 1 -107 47q-32 41 -33 113v0v0q1 72 33 113q37 47 107 47v0q71 0 108 -46
q19 -23 27 -55l-27 -7q-7 26 -21 44q-29 35 -87 36q-57 -1 -85 -36q-27 -34 -27 -96t27 -95q28 -36 85 -37q49 0 76 28q15 16 18 34q2 17 -4 30q-6 14 -21 23q-4 -27 -17 -43q-17 -22 -48 -24q-24 -1 -43 11q-21 15 -23 40q-1 24 17 40q17 15 47 17q21 1 39 -2q-2 15 -9 24
q-11 11 -31 12h-1q-19 2 -35 -18l-23 16q20 29 58 30h1q64 -2 69 -72l4 -2v0v0zM222 136q14 0 25 9v0q12 10 15 40q-13 3 -29 3h-9q-22 -2 -30 -10q-9 -9 -8 -18q1 -13 12 -19t25 -5h-1v0z" />
    <glyph glyph-name="square-x-twitter" unicode="&#xe61a;" 
d="M64 416q-27 -1 -45 -19v0q-18 -18 -19 -45v-320q1 -27 19 -45t45 -19h320q27 1 45 19t19 45v320q-1 27 -19 45t-45 19h-320v0zM361 332l-104 -119l122 -161h-95l-75 98l-86 -98h-47l111 127l-117 153h98l67 -90l79 90h47v0zM323 80l-170 225h-28l172 -225h26v0z" />
    <glyph glyph-name="x-twitter" unicode="&#xe61b;" horiz-adv-x="512" 
d="M389 400h71l-154 -176l181 -240h-142l-111 145l-127 -145h-71l165 188l-174 228h145l101 -133l116 133v0zM364 26h40l-253 334h-42l255 -334v0z" />
    <glyph glyph-name="square-twitter" unicode="&#xf081;" 
d="M64 416q-27 -1 -45 -19v0q-18 -18 -19 -45v-320q1 -27 19 -45t45 -19h320q27 1 45 19t19 45v320q-1 27 -19 45t-45 19h-320v0zM351 249v0q0 -45 -21 -87q-22 -43 -63 -71q-42 -28 -102 -29q-57 1 -101 29h16q47 0 81 28q-22 0 -38 13q-17 12 -23 32q14 -2 29 1
q-22 5 -37 23q-15 17 -15 42v1q13 -8 30 -9q-14 9 -22 24q-8 14 -8 31q1 18 9 33q25 -30 60 -48q34 -18 75 -21q-5 35 14 57q19 23 51 24q29 -1 47 -21q23 5 42 16q-8 -23 -29 -36q20 2 38 10q-14 -20 -33 -34v-8v0v0z" />
    <glyph glyph-name="square-facebook" unicode="&#xf082;" 
d="M400 416h-352q-20 0 -34 -14t-14 -34v-352q0 -20 14 -34t34 -14h137v152h-63v72h63v55q1 46 26 71t68 25q21 0 38 -2q16 -2 17 -3v0v-61h-31q-23 0 -32 -12q-9 -11 -8 -26v-47h69l-11 -72h-58v-152h137q20 0 34 14t14 34v352q0 20 -14 34t-34 14v0z" />
    <glyph glyph-name="linkedin" unicode="&#xf08c;" 
d="M416 416h-384q-14 0 -23 -9q-9 -10 -9 -23v-384q0 -13 9 -23q9 -9 23 -9h384q14 0 23 9q9 10 9 23v384q0 13 -9 23q-9 9 -23 9v0zM135 32h-66v214h67v-214h-1zM102 275q-16 0 -27 11v0q-11 11 -11 27q0 17 11 28t27 11q17 0 27 -11q11 -11 12 -28q-1 -16 -12 -27
q-10 -11 -27 -11v0zM384 32h-66v104q1 20 -5 38q-5 17 -30 19q-25 -1 -33 -17q-7 -16 -6 -38v-106h-67v214h64v-29h1q6 13 22 23q16 11 41 11q49 -1 65 -29q16 -29 14 -73v-117v0z" />
    <glyph glyph-name="square-github" unicode="&#xf092;" 
d="M400 416h-352q-20 -1 -34 -14q-13 -14 -14 -34v-352q1 -20 14 -34q14 -13 34 -14h352q20 1 34 14q13 14 14 34v352q-1 20 -14 34q-14 13 -34 14v0zM277 32q-12 0 -11 8v12v44q-1 23 -11 30q29 2 52 14q22 13 24 59q-1 25 -17 39q1 4 3 16q1 12 -5 29q-12 2 -28 -7
t-18 -10v-1q-20 6 -41 6q-22 0 -42 -6q-2 2 -18 11t-28 7q-6 -17 -5 -29q2 -12 4 -16q-16 -14 -16 -39q1 -46 23 -58q22 -13 51 -15q-7 -6 -10 -22q-8 -4 -23 -4q-14 0 -26 18q-7 11 -16 14q-8 3 -9 3q-11 -1 -7 -5q4 -5 6 -5q8 -5 13 -14t5 -10q10 -21 32 -21q22 -1 24 1v0
v-31v-10q1 -8 -11 -8q-50 18 -81 60q-30 43 -31 99q1 70 46 115t116 46q70 -1 117 -46t49 -115q-1 -56 -31 -99q-29 -42 -80 -60v0zM179 93q-3 0 -4 2q0 3 3 3q4 0 4 -2t-3 -3v0zM170 94q-1 -2 -4 -2t-4 2q1 2 4 3q3 0 4 -3v0zM156 95q-1 -2 -4 -1t-3 3q1 2 4 2q3 -1 3 -4v0
zM144 101q-2 -2 -5 0q-2 3 -1 4q2 2 5 0q2 -3 1 -4v0zM135 110q-2 -1 -4 1q-2 3 0 4t4 -1q1 -3 0 -4v0zM128 120q-2 -2 -3 0q-2 2 -1 4q2 1 4 -1q1 -2 0 -3v0zM121 127q0 -1 -2 0t-2 2q1 1 3 1q2 -2 1 -3v0z" />
    <glyph glyph-name="twitter" unicode="&#xf099;" horiz-adv-x="512" 
d="M459 296q1 -7 1 -13v0v0q0 -71 -35 -139q-34 -68 -101 -113q-66 -45 -163 -47q-90 1 -161 47q12 -1 25 -1q75 1 131 45q-36 1 -62 21t-36 51q9 -1 19 -1q15 0 28 3q-37 8 -60 36t-24 67v2q21 -12 47 -14q-44 31 -47 88q1 29 15 53q39 -48 95 -77q55 -29 121 -33
q-2 12 -2 24q1 44 30 74q30 30 74 31q47 -1 77 -33q36 7 67 25q-13 -37 -46 -58q31 4 60 17q-22 -32 -53 -55v0z" />
    <glyph glyph-name="facebook" unicode="&#xf230;" horiz-adv-x="512" 
d="M504 192q-1 69 -34 125v0q-33 56 -89 89v0q-56 33 -125 34q-69 -1 -125 -34t-89 -89t-34 -125q2 -95 60 -162t149 -83v173h-63v72h63v55q1 46 26 71t68 25q21 0 38 -2q16 -2 17 -3v0v-61h-31q-23 0 -32 -12q-9 -11 -8 -26v-47h69l-11 -72h-58v-173q91 16 149 83t60 162v0
z" />
    <glyph glyph-name="facebook" unicode="&#xf09a;" horiz-adv-x="512" 
d="M504 192q-1 69 -34 125v0q-33 56 -89 89v0q-56 33 -125 34q-69 -1 -125 -34t-89 -89t-34 -125q2 -95 60 -162t149 -83v173h-63v72h63v55q1 46 26 71t68 25q21 0 38 -2q16 -2 17 -3v0v-61h-31q-23 0 -32 -12q-9 -11 -8 -26v-47h69l-11 -72h-58v-173q91 16 149 83t60 162v0
z" />
    <glyph glyph-name="github" unicode="&#xf09b;" horiz-adv-x="496" 
d="M166 51q-1 -4 -5 -4q-6 0 -6 4q1 3 5 3q5 0 6 -3v0zM135 55q-1 -3 4 -5q5 -1 6 2q1 4 -4 5t-6 -2v0zM179 57q-5 -1 -5 -5q1 -3 6 -3q5 2 5 5q-1 3 -6 3v0zM245 440q-107 -2 -175 -70v0q-68 -68 -70 -174q1 -85 47 -149t123 -90q18 -1 17 12v15v46q-2 0 -19 -2
q-18 -1 -38 4q-20 6 -28 28q0 2 -8 16q-8 13 -20 21q-2 1 -8 8q-7 6 10 7q1 1 14 -4q13 -4 24 -22q18 -27 39 -27q22 0 34 6q4 24 16 34q-44 2 -77 22q-33 19 -35 89q0 20 6 33q5 13 17 25q-2 6 -4 24t7 44q18 3 42 -11q25 -13 27 -16v0q30 9 63 9q32 0 63 -9q0 1 13 9
q12 8 28 14q16 7 28 4q9 -26 7 -44t-5 -24q12 -12 19 -25t7 -33q-1 -48 -17 -71q-17 -22 -43 -30t-55 -10q16 -11 17 -46v-66v-18q-1 -13 17 -12q76 26 122 90q45 64 46 149q-1 70 -34 125q-34 55 -90 87q-57 31 -127 32v0zM97 95q-2 -2 1 -5t5 -1t-1 5q-2 3 -5 1v0zM86 103
q0 -2 3 -4q3 -1 4 1t-2 4q-3 1 -5 -1v0zM119 68q-2 -3 1 -7q4 -3 7 -1q1 3 -2 7q-4 3 -6 1v0zM107 82q-2 -2 0 -6q3 -3 6 -2q2 2 0 6q-3 4 -6 2v0z" />
    <glyph glyph-name="pinterest" unicode="&#xf0d2;" horiz-adv-x="496" 
d="M496 192q-1 -69 -34 -125v0q-33 -56 -89 -89v0q-56 -33 -125 -34q-38 0 -73 11q8 13 17 31q9 17 13 34l9 33t7 26v0q6 -12 22 -20q15 -8 35 -8q57 1 92 45q35 43 36 109q-1 63 -44 102q-43 40 -109 41q-80 -2 -122 -46q-41 -43 -41 -104q0 -29 13 -56q13 -28 37 -40
q7 -3 8 3q1 4 4 15q2 8 3 13q1 4 -2 7q-7 10 -13 25q-5 16 -5 32q0 43 30 74q29 32 82 34q46 -1 75 -29q28 -27 29 -72q-1 -51 -23 -82t-55 -32q-19 1 -30 13q-11 13 -7 32q4 16 9 32q10 29 11 50q1 32 -31 35q-19 0 -32 -17q-12 -16 -13 -43q1 -17 4 -26q3 -10 4 -11v0
q-1 -1 -7 -27t-13 -55t-9 -41q-4 -16 -4 -36q1 -20 3 -35q-71 28 -114 90q-43 61 -44 141q1 69 34 125t89 89t125 34q69 -1 125 -34t89 -89t34 -125v0z" />
    <glyph glyph-name="square-pinterest" unicode="&#xf0d3;" 
d="M448 368v-352q-1 -20 -14 -34q-14 -13 -34 -14h-246q8 13 16 29q8 15 12 30q3 11 9 34q5 22 6 25q7 -12 22 -20t34 -9q57 2 92 45t36 108q-2 62 -44 102q-42 39 -108 40q-79 -2 -120 -45q-42 -43 -42 -104q0 -28 14 -55q13 -28 36 -40q7 -3 8 4q1 2 2 8q3 11 5 19
q1 4 -2 7q-7 10 -13 25q-5 15 -5 31q0 43 29 74t82 33q46 -1 74 -28t29 -72q-1 -51 -23 -81q-21 -31 -55 -31q-18 0 -29 13q-11 12 -7 31q4 16 9 32q10 29 11 50q-1 26 -19 33q-19 6 -37 -8q-18 -15 -19 -50q0 -17 3 -26q4 -10 4 -11v0q-8 -34 -14 -57q-9 -38 -14 -59
q-4 -21 -4 -37t2 -39l3 -1h-89q-20 1 -34 14q-13 14 -14 34v352q1 20 14 34q14 13 34 14h352q20 -1 34 -14q13 -14 14 -34v0z" />
    <glyph glyph-name="square-google-plus" unicode="&#xf0d4;" 
d="M400 416h-352q-20 -1 -34 -14q-13 -14 -14 -34v-352q1 -20 14 -34q14 -13 34 -14h352q20 1 34 14q13 14 14 34v352q-1 20 -14 34q-14 13 -34 14v0zM164 92q-43 1 -71 29v0q-28 28 -29 71q1 43 29 71t71 29q41 -1 67 -26l-27 -26q-11 13 -40 15q-26 -1 -44 -18
q-17 -18 -18 -45q1 -27 18 -45q18 -18 44 -18q29 1 42 16t15 27h-57v34h94q2 -7 2 -16q-1 -44 -26 -71q-26 -26 -70 -27v0zM384 174h-29v-29h-29v29h-29v29h29v29h29v-29h29v-29v0z" />
    <glyph glyph-name="google-plus-g" unicode="&#xf0d5;" horiz-adv-x="640" 
d="M386 220q3 -14 3 -32q-1 -84 -50 -135q-50 -52 -134 -53q-82 2 -136 56t-56 136q2 82 56 136t136 56q78 -2 128 -50l-52 -50q-10 10 -29 20q-19 9 -47 9q-51 -1 -84 -35q-34 -34 -35 -86q1 -52 35 -86q33 -34 84 -35q56 2 81 31q25 28 28 51h-109v67h181v0zM571 213v56
h-56v-56h-55v-56h55v-56h56v56h56v56h-56v0z" />
    <glyph glyph-name="linkedin-in" unicode="&#xf0e1;" 
d="M100 0h-93v299h93v-299zM54 340q-23 1 -38 16v0q-15 15 -16 38q1 31 27 47q27 14 54 0q26 -16 27 -47q-1 -23 -16 -38t-38 -16v0zM448 0h-93v146q2 27 -6 52t-42 27q-35 -1 -46 -24t-10 -53v-148h-93v299h90v-41h1q9 19 31 33q23 15 57 16q68 -2 91 -41q22 -40 20 -102
v-164v0z" />
    <glyph glyph-name="github-alt" unicode="&#xf113;" horiz-adv-x="480" 
d="M186 119q0 -17 -9 -35v0q-8 -18 -28 -20q-19 2 -28 20q-8 18 -8 35t8 36q9 18 28 19q20 -1 28 -19q9 -19 9 -36v0zM480 170q2 -50 -17 -95q-20 -37 -55 -53q-36 -16 -78 -19q-41 -4 -79 -3h-5h-8q-38 -1 -81 3q-43 3 -80 19t-57 53q-21 45 -20 95q0 64 41 113
q-7 24 -7 49q0 16 3 27q4 11 11 25q34 0 59 -8t50 -28q44 10 89 10q41 0 80 -9q25 20 50 27q25 8 58 8q7 -14 11 -25t4 -27q0 -25 -8 -48q40 -50 39 -114v0zM416 119q-1 34 -19 58v0q-19 24 -55 25q-22 -1 -44 -4l-12 -2q-22 -3 -45 -3t-45 3q-6 1 -11 1q-22 4 -45 5
q-35 -1 -54 -25t-19 -58q0 -43 23 -65t57 -29q34 -8 70 -7h48q36 -1 70 7q35 7 57 29q23 22 24 65v0zM333 174q-19 -1 -28 -19v0q-9 -19 -9 -36t9 -35t28 -20q19 2 28 20t9 35t-9 36q-9 18 -28 19v0z" />
    <glyph glyph-name="maxcdn" unicode="&#xf136;" horiz-adv-x="512" 
d="M461 5h-97l52 243q3 16 -5 26q-8 9 -24 9h-49l-60 -278h-97l59 278h-83l-60 -278h-97l60 278l-45 96h372q61 -1 98 -45q36 -46 24 -106l-48 -223v0z" />
    <glyph glyph-name="html5" unicode="&#xf13b;" horiz-adv-x="384" 
d="M0 416l35 -396l157 -52l157 52l35 396h-384v0zM308 288h-184l5 -49h175l-13 -149l-98 -27v0h-1l-99 27l-6 76h48l3 -38l54 -15l53 15l6 62h-167l-12 146h241l-5 -48v0z" />
    <glyph glyph-name="css3" unicode="&#xf13c;" horiz-adv-x="512" 
d="M480 416l-64 -368l-223 -80l-193 80l20 95h82l-8 -41l116 -44l134 44l19 97h-333l16 82h333l11 53h-334l17 82h407v0z" />
    <glyph glyph-name="btc" unicode="&#xf15a;" horiz-adv-x="384" 
d="M310 205q45 20 41 82q-4 42 -36 60q-31 18 -78 22v79h-49v-77q-19 0 -38 -1v78h-49v-79q-10 -1 -25 -1h-42q-13 1 -30 1v-52h8q25 1 38 -2q14 -3 17 -20v-217q-2 -12 -12 -15q-10 -2 -31 -1h-10l-10 -58h82q17 0 15 0v-68h49v67h38v0v-67h49v68q61 2 99 24q37 21 44 77
q3 46 -16 69q-19 24 -54 31v0zM151 313q4 0 9 1v0q18 1 42 -1v0q24 -2 42 -12v0q19 -11 20 -36q-1 -25 -20 -35t-43 -12q-25 -2 -42 -1h-8v96v0zM151 62v106h11q21 1 49 -1q29 -2 50 -13q22 -12 23 -39q-1 -27 -24 -39q-22 -11 -50 -13q-29 -2 -50 -1h-9v0z" />
    <glyph glyph-name="square-youtube" unicode="&#xf431;" 
d="M187 246l95 -54l-95 -54v108v0zM448 368v-352q-1 -20 -14 -34q-14 -13 -34 -14h-352q-20 1 -34 14q-13 14 -14 34v352q1 20 14 34q14 13 34 14h352q20 -1 34 -14q13 -14 14 -34v0zM406 192q0 3 -1 33v0q-1 31 -7 55q-7 25 -32 32q-16 4 -49 6q-34 1 -62 2h-31h-31
q-28 -1 -62 -2q-33 -2 -49 -6q-25 -7 -32 -32q-6 -24 -7 -55q-1 -30 -1 -33v0q0 -3 1 -34q1 -30 7 -55q7 -24 32 -31q16 -4 49 -6q34 -1 62 -2h31h31q28 1 62 2q33 2 49 6q25 7 32 32q6 24 7 54q1 31 1 34v0z" />
    <glyph glyph-name="square-youtube" unicode="&#xf166;" 
d="M187 246l95 -54l-95 -54v108v0zM448 368v-352q-1 -20 -14 -34q-14 -13 -34 -14h-352q-20 1 -34 14q-13 14 -14 34v352q1 20 14 34q14 13 34 14h352q20 -1 34 -14q13 -14 14 -34v0zM406 192q0 3 -1 33v0q-1 31 -7 55q-7 25 -32 32q-16 4 -49 6q-34 1 -62 2h-31h-31
q-28 -1 -62 -2q-33 -2 -49 -6q-25 -7 -32 -32q-6 -24 -7 -55q-1 -30 -1 -33v0q0 -3 1 -34q1 -30 7 -55q7 -24 32 -31q16 -4 49 -6q34 -1 62 -2h31h31q28 1 62 2q33 2 49 6q25 7 32 32q6 24 7 54q1 31 1 34v0z" />
    <glyph glyph-name="youtube" unicode="&#xf16a;" horiz-adv-x="576" 
d="M550 324q-12 37 -49 49q-24 5 -74 8q-50 2 -93 3h-46h-46q-43 -1 -93 -3q-50 -3 -74 -8q-37 -12 -49 -49q-5 -23 -8 -53q-2 -31 -3 -55v-24v-25q1 -24 3 -54q3 -31 8 -54q12 -37 49 -48q24 -5 74 -8q50 -2 93 -3h46v0h46q43 1 93 3q50 3 74 8q37 11 49 48q5 23 8 54
q2 30 3 54v25v24q-1 24 -3 55q-3 30 -8 53v0zM232 110v163l143 -81l-143 -82v0z" />
    <glyph glyph-name="youtube" unicode="&#xf167;" horiz-adv-x="576" 
d="M550 324q-12 37 -49 49q-24 5 -74 8q-50 2 -93 3h-46h-46q-43 -1 -93 -3q-50 -3 -74 -8q-37 -12 -49 -49q-5 -23 -8 -53q-2 -31 -3 -55v-24v-25q1 -24 3 -54q3 -31 8 -54q12 -37 49 -48q24 -5 74 -8q50 -2 93 -3h46v0h46q43 1 93 3q50 3 74 8q37 11 49 48q5 23 8 54
q2 30 3 54v25v24q-1 24 -3 55q-3 30 -8 53v0zM232 110v163l143 -81l-143 -82v0z" />
    <glyph glyph-name="xing" unicode="&#xf168;" horiz-adv-x="384" 
d="M163 238q-2 -3 -26 -46v0q-17 -29 -44 -78q-8 -12 -18 -12h-65q-13 2 -9 14l69 122q1 0 0 0l-44 76q-5 12 9 14h65q11 0 18 -13l45 -77v0zM383 402l-144 -253v0l91 -167q5 -12 -8 -14h-65q-12 0 -18 12l-93 169q2 3 19 32q33 59 126 223q7 12 17 12h66q13 -2 9 -14v0z
" />
    <glyph glyph-name="square-xing" unicode="&#xf169;" 
d="M400 416h-352q-20 -1 -34 -14q-13 -14 -14 -34v-352q1 -20 14 -34q14 -13 34 -14h352q20 1 34 14q13 14 14 34v352q-1 20 -14 34q-14 13 -34 14v0zM140 128h-46q-9 1 -6 10l49 87v0l-31 54q-4 9 6 10h46q8 0 13 -9l32 -55q-2 -3 -50 -88q-5 -9 -13 -9v0zM360 342
l-103 -181v0l66 -119q3 -9 -6 -10h-47q-8 0 -13 9l-66 120q3 5 63 111q18 31 41 71q5 9 12 9h47q9 -1 6 -10v0z" />
    <glyph glyph-name="dropbox" unicode="&#xf16b;" horiz-adv-x="528" 
d="M264 332l-132 -85l132 -84l-132 -84l-132 85l132 84l-132 84l132 84l132 -84v0zM132 52l132 85l132 -85l-132 -84l-132 84v0zM264 164l132 84l-132 84l132 84l132 -84l-132 -85l132 -84l-132 -84l-132 85v0z" />
    <glyph glyph-name="stack-overflow" unicode="&#xf16c;" horiz-adv-x="384" 
d="M291 137l-196 41l-8 -39l196 -41zM342 224l-154 128l-25 -31l153 -128zM311 184l-182 85l-16 -37l181 -84zM262 416l-32 -24l119 -160l32 24zM283 88h-200v-40h200v40zM322 8h-279v120h-40v-160h359v160h-40v-120z" />
    <glyph glyph-name="instagram" unicode="&#xf16d;" 
d="M224 307q-49 -1 -81 -34v0q-33 -32 -34 -81q1 -49 34 -81q32 -33 81 -34q49 1 81 34q33 32 34 81q-1 49 -34 81q-32 33 -81 34v0zM224 117q-32 1 -53 22v0q-21 21 -22 53q1 32 22 53t53 22q32 -1 53 -22t22 -53q-1 -32 -22 -53t-53 -22v0zM371 312q-3 -25 -27 -27
q-25 2 -27 27q0 11 8 19q7 7 19 7q11 0 19 -7q7 -8 8 -19v0zM447 284q0 55 -37 94q-39 37 -93 37q-20 1 -57 1h-72q-37 0 -56 -1q-54 0 -94 -37q-37 -39 -36 -93q-2 -20 -2 -57v-72t2 -56q-1 -55 36 -94q39 -37 94 -36q19 -1 56 -2h72q37 1 57 2q54 -1 93 36q37 39 37 94
q1 20 1 56v72q0 37 -1 57v-1zM399 60q-13 -30 -43 -43q-20 -7 -54 -8t-62 -1h-16h-16q-28 0 -62 1q-33 1 -54 8q-30 13 -43 43q-7 21 -8 54q-1 34 -1 62v16v16q0 28 1 62t8 54q13 30 43 43q21 7 54 8q34 2 62 1h16h16q28 0 62 -1t54 -8q30 -13 43 -43q7 -20 8 -54
q2 -34 1 -62v-16v-16q1 -28 -1 -62q-1 -34 -8 -54v0z" />
    <glyph glyph-name="flickr" unicode="&#xf16e;" 
d="M400 416h-352q-20 -1 -34 -14q-13 -14 -14 -34v-352q1 -20 14 -34q14 -13 34 -14h352q20 1 34 14q13 14 14 34v352q-1 20 -14 34q-14 13 -34 14v0zM145 129q-28 1 -45 19v0q-18 17 -19 44q1 28 19 45q17 18 45 19q27 -1 44 -19q18 -17 19 -45q-1 -27 -19 -44
q-17 -18 -44 -19v0zM304 129q-28 1 -45 19v0q-18 17 -19 44q1 28 19 45q17 18 45 19q27 -1 44 -19q18 -17 19 -45q-1 -27 -19 -44q-17 -18 -44 -19v0z" />
    <glyph glyph-name="adn" unicode="&#xf170;" horiz-adv-x="496" 
d="M248 280l65 -98h-130l65 99v-1zM496 192q-1 -69 -34 -125v0q-33 -56 -89 -89v0q-56 -33 -125 -34q-69 1 -125 34t-89 89t-34 125q1 69 34 125t89 89t125 34q69 -1 125 -34t89 -89t34 -125v0zM396 109l-148 223l-148 -223h30l34 52h168l34 -52h30v0z" />
    <glyph glyph-name="bitbucket" unicode="&#xf172;" horiz-adv-x="512" 
d="M22 416q-6 0 -11 -5q-5 -4 -5 -11v-3l68 -412q4 -17 21 -18h326q13 1 16 13l68 417q1 15 -13 19h-3h-467v0zM308 118h-104l-28 147h157l-25 -147v0z" />
    <glyph glyph-name="bitbucket" unicode="&#xf171;" horiz-adv-x="512" 
d="M22 416q-6 0 -11 -5q-5 -4 -5 -11v-3l68 -412q4 -17 21 -18h326q13 1 16 13l68 417q1 15 -13 19h-3h-467v0zM308 118h-104l-28 147h157l-25 -147v0z" />
    <glyph glyph-name="tumblr" unicode="&#xf173;" horiz-adv-x="320" 
d="M310 -32q-11 -12 -36 -22v0q-26 -9 -62 -10q-59 1 -91 25t-44 56q-12 33 -12 60v144h-47q-9 0 -10 10v68q0 11 11 16q46 17 65 51q18 33 20 66q1 16 16 16h71q9 -1 10 -10v-115h83q9 -1 10 -10v-82q-1 -9 -10 -10h-84v-133q0 -26 17 -37q18 -11 51 1q7 3 13 2q5 -1 7 -7
l22 -65q4 -8 0 -14v0z" />
    <glyph glyph-name="square-tumblr" unicode="&#xf174;" 
d="M400 416h-352q-20 -1 -34 -14q-13 -14 -14 -34v-352q1 -20 14 -34q14 -13 34 -14h352q20 1 34 14q13 14 14 34v352q-1 20 -14 34q-14 13 -34 14v0zM318 52q-7 -7 -23 -14v0q-16 -6 -38 -6q-55 2 -74 32q-19 29 -18 56v90h-30q-5 0 -6 6v43q0 7 7 10q29 11 40 32
q12 21 13 41q1 10 10 10h44q6 -1 6 -6v-72h52q6 -1 6 -6v-52q0 -5 -6 -6h-52v-83q0 -16 11 -23t32 1q4 2 8 1q3 -1 4 -5l14 -40q2 -5 0 -9v0z" />
    <glyph glyph-name="apple" unicode="&#xf179;" horiz-adv-x="384" 
d="M319 179q-1 55 50 85q-29 40 -85 45q-17 1 -34 -4t-30 -10q-16 -6 -24 -7q-11 1 -28 8q-24 10 -49 12q-44 -1 -78 -34q-35 -33 -37 -100q0 -39 14 -81q7 -19 23 -49q16 -29 38 -52t47 -24q16 1 32 8q18 9 43 10q24 -1 41 -9q16 -8 36 -9q24 2 45 23q21 22 36 49
q15 28 21 47q-45 25 -54 56q-9 30 -7 36v0v0zM262 343q19 25 23 45v0q3 19 1 28v0v0q-18 -1 -37 -11q-18 -10 -31 -24q-27 -30 -25 -72q39 -1 69 34v0z" />
    <glyph glyph-name="windows" unicode="&#xf17a;" 
d="M0 354l184 26v-178h-184v152v0zM0 30l184 -26v176h-184v-150v0zM204 2l244 -34v212h-244v-178v0zM204 382v-180h244v214l-244 -34v0z" />
    <glyph glyph-name="android" unicode="&#xf17b;" horiz-adv-x="576" 
d="M421 146q-22 2 -24 24q2 22 24 24q21 -2 24 -24q-3 -22 -24 -24v0zM155 146q-21 2 -24 24q3 22 24 24q22 -2 24 -24q-2 -22 -24 -24v0zM429 291l48 83q3 5 1 10q-3 5 -9 5t-9 -5v0l-49 -85q-59 27 -123 27t-123 -27l-49 85q-3 5 -9 5t-9 -5q-2 -5 1 -10v0l48 -83
q-63 -35 -101 -94q-39 -58 -46 -133h576q-7 75 -46 133q-38 59 -101 94v0z" />
    <glyph glyph-name="linux" unicode="&#xf17c;" 
d="M221 325q0 -1 1 -1v0q1 -1 2 -1q2 0 3 1q-1 2 -3 3v0q-3 2 -6 0q-1 0 -1 -1q1 -1 2 -1h2v0zM199 323q1 0 2 1v0l1 1h1q2 0 2 1q1 1 0 1q-3 2 -6 0v0q-3 -1 -3 -3q1 -1 3 -1v0zM420 44q-5 7 -7 19v0v1q-2 13 -11 22q-2 2 -4 3l-4 2q12 42 -4 79q-8 23 -21 42t-25 33l-1 1
q-13 15 -23 32q-9 17 -9 39v5q1 25 -2 54q-4 29 -20 50t-54 22q-43 -1 -60 -21t-19 -46q-2 -27 0 -49q1 -12 1 -19q-1 -33 -23 -65q-14 -17 -31 -42q-17 -26 -27 -55q-9 -27 -6 -53q-5 -5 -10 -12q-3 -5 -6 -8q-6 -5 -15 -7q-1 -1 -2 -1q-11 -3 -19 -15q-3 -6 -3 -12t1 -12
q1 -1 1 -2q2 -11 0 -19q-8 -21 -2 -32q6 -10 20 -12q8 -1 18 -2q22 -2 41 -10q31 -16 56 -11q18 4 26 20q9 1 19 3q12 3 29 4q11 0 24 -2q14 -2 32 -2q0 -4 2 -7v0q14 -25 40 -23t49 28q15 16 36 24q8 4 15 8q12 7 13 19q1 11 -15 29v0zM224 361q8 16 22 16v0q13 0 22 -16
q8 -24 -5 -40q-2 1 -12 5l1 1q2 1 3 3q3 10 0 18q-3 9 -9 9q-6 1 -10 -6t-2 -17q-7 4 -13 5q-2 11 3 22v0zM183 372q8 0 14 -9v0q6 -10 5 -24q-5 -2 -10 -5q1 7 -2 13q-3 7 -8 7q-6 -2 -7 -12q0 -10 6 -16v-1q2 1 -6 -5q-12 13 -9 32q3 18 17 20v0zM169 311q3 3 6 5v0
q7 5 9 6q0 1 1 1q7 10 26 13q11 1 26 -9q5 -3 11 -5q5 -1 12 -4q14 -5 10 -18q-4 -12 -22 -18q-6 -2 -11 -6q-10 -9 -27 -9q-6 0 -10 2q-6 3 -11 8q-4 4 -9 7q-13 7 -15 15t4 13v-1zM173 -23q-4 -25 -27 -28v0q-24 -2 -49 10q-22 11 -44 11q-25 1 -32 11q-4 7 2 27v0
q3 10 0 21v3q-3 12 1 20q5 9 15 11l4 2q8 2 15 8l8 10q3 4 7 8q6 9 17 7q12 -2 22 -16l20 -36q6 -11 17 -24q10 -12 17 -23q7 -12 7 -22v0zM171 3q-6 11 -14 20q12 -1 17 9q3 10 -8 25q-11 14 -24 23t-14 9v0q-20 13 -25 30q-4 17 0 35t12 33q8 16 15 27q5 4 -8 -21
q-8 -13 -13 -37q-5 -23 10 -46q1 32 14 62q3 7 7 16q10 21 20 47t12 50q3 -2 6 -5q4 -2 8 -6q2 -2 5 -4q20 -14 42 -1l6 4l10 5q15 5 22 15q7 -24 18 -51q10 -28 20 -45q5 -8 12 -25t11 -39q5 0 11 -2q9 28 -2 52t-21 33q-7 7 -3 7q10 -9 20 -25q10 -15 15 -34q5 -18 1 -36
q13 -5 23 -14q11 -8 8 -21h-4h-1q5 14 -22 26q-16 7 -26 5q-11 -2 -13 -17q-17 -8 -21 -28q-4 -16 -5 -39q-1 -12 -6 -28v-1q-25 -18 -55 -22q-31 -4 -60 14v0zM429 15q-3 -12 -24 -20v0q-21 -8 -39 -27q-22 -23 -44 -25t-34 19q-5 17 1 36q2 7 4 13q5 15 6 28q1 23 4 39
q4 15 14 21h1q1 -22 19 -29q10 -2 21 4q11 5 17 12h2q12 2 21 -5q7 -7 9 -20q1 -12 8 -22q15 -17 14 -24v0zM173 299h1v0l7 -7q10 -9 28 -10q17 1 31 10v0q9 5 15 11q7 5 3 6q-2 0 -3 -2l-3 -3q-1 -1 -3 -2q-6 -5 -11 -8q-12 -8 -29 -10q-16 1 -25 10q-5 4 -8 7v0q-1 1 -1 2
q-1 2 -3 3q-3 -1 1 -7v0z" />
    <glyph glyph-name="dribbble" unicode="&#xf17d;" horiz-adv-x="512" 
d="M256 440q-69 -1 -125 -34v0q-56 -33 -89 -89v0q-33 -56 -34 -125q1 -69 34 -125t89 -89t125 -34q69 1 125 34t89 89t34 125q-1 69 -34 125t-89 89t-125 34v0zM420 326q46 -56 48 -132q-7 2 -50 7t-98 -1q-8 20 -18 42q58 26 87 52q28 25 31 32v0zM396 350q-2 -6 -28 -30
v0q-27 -24 -83 -46q-27 48 -50 83q-23 34 -29 41q51 12 101 -1q50 -12 89 -47v0zM166 383q5 -6 28 -40v0q23 -34 50 -82q-76 -19 -131 -23t-64 -3q10 50 41 88q31 39 76 60v0zM44 192v6q10 -1 73 3q63 5 145 27q9 -18 17 -36q-58 -17 -106 -57t-74 -85q-53 58 -55 142v0z
M126 25q17 35 60 72v0q43 37 108 60q22 -59 32 -102q11 -43 13 -58q-52 -22 -109 -16q-56 7 -104 44v0zM374 16q-1 11 -11 52v0q-9 41 -30 99q51 7 88 0q37 -6 44 -9q-7 -44 -31 -81q-24 -36 -60 -61v0z" />
    <glyph glyph-name="skype" unicode="&#xf17e;" 
d="M425 148q4 21 4 44q-2 87 -60 145t-145 60q-22 0 -44 -4q-29 22 -68 23q-48 -1 -79 -33q-32 -31 -33 -79q1 -39 23 -68q-4 -21 -4 -44q2 -87 60 -145t145 -60q22 0 44 4q29 -22 68 -23q47 1 79 33t33 79q-1 39 -23 68v0zM230 57q-50 0 -85 19v0q-34 18 -35 46q0 12 7 21
t22 9q19 -2 31 -18q9 -9 22 -18q13 -8 35 -9q41 2 43 27q-1 12 -11 18q-10 5 -28 9q-2 0 -3 1q-9 2 -17 4q-43 8 -71 24q-29 16 -30 59q2 44 35 63q34 18 74 18q43 0 76 -15t35 -40q-1 -13 -8 -23q-8 -9 -23 -9q-17 1 -27 14q-8 7 -18 13q-11 6 -30 6q-40 1 -42 -22
q0 -13 13 -18q13 -6 40 -12q8 -1 16 -3q33 -6 61 -23t30 -55q-2 -44 -35 -65q-34 -21 -77 -21v0z" />
    <glyph glyph-name="foursquare" unicode="&#xf180;" horiz-adv-x="368" 
d="M323 445h-273q-28 -1 -39 -16q-11 -16 -11 -30v-434q1 -15 7 -22q6 -6 11 -8t15 -2q10 1 18 9q63 73 91 105q28 33 34 40q7 8 6 7v0q3 4 6 3h1h83q25 1 34 14q8 13 10 25q1 0 1 1l48 243q16 64 -42 65v0zM307 371l-12 -60q-3 -11 -16 -13h-107q-19 -1 -20 -20v-13
q1 -19 20 -21h91q6 0 11 -5q4 -6 3 -13q-2 -9 -6 -31q-4 -21 -5 -28q-2 -10 -17 -13h-73q-10 0 -15 -2q-6 -3 -12 -11q2 3 -15 -18q-16 -20 -74 -90q-2 -1 -2 0v339q1 14 16 17h219q15 -2 14 -18v0z" />
    <glyph glyph-name="trello" unicode="&#xf181;" 
d="M392 416h-336q-24 -1 -40 -16q-15 -16 -16 -40v0q0 3 0 -12v-88v-236q1 -24 16 -40q16 -15 40 -16h336q24 1 40 17q15 15 16 39v336q-1 24 -16 39q-16 16 -40 17v0zM197 77q-2 -25 -27 -27h-83q-11 0 -19 8q-7 7 -8 19v254q1 11 8 19q8 8 19 8h83q12 0 19 -8q8 -8 8 -19
v-254v0zM390 189q0 -12 -8 -19v0q-7 -8 -19 -8h-81q-11 0 -19 8q-7 7 -8 19v142q1 11 8 19q8 7 19 8h81q12 -1 19 -8q8 -8 8 -19v-142v0z" />
    <glyph glyph-name="gratipay" unicode="&#xf184;" horiz-adv-x="496" 
d="M248 440q-69 -1 -125 -34v0q-56 -33 -89 -89v0q-33 -56 -34 -125q1 -69 34 -125t89 -89t125 -34q69 1 125 34t89 89t34 125q-1 69 -34 125t-89 89t-125 34v0zM363 214l-113 -153l-113 153q-8 10 -9 32t23 40q21 12 39 6q18 -5 29 -18q13 -14 31 -13q18 0 31 13
q10 13 29 18q18 6 39 -6q23 -18 22 -40q0 -22 -8 -32v0z" />
    <glyph glyph-name="vk" unicode="&#xf189;" 
d="M31 385q-22 -23 -27 -66v0q-5 -43 -4 -118v-18q-1 -75 4 -118t27 -66q23 -22 66 -27t118 -4h18q75 -1 118 4t66 27q22 23 27 66t4 118v18q1 75 -4 118t-27 66q-23 22 -66 27t-118 4h-18q-75 1 -118 -4t-66 -27v0zM76 280h51q2 -64 24 -94q21 -30 45 -35v129h48v-74
q23 3 43 24t28 50h48q-6 -29 -23 -54q-17 -24 -42 -39q28 -14 48 -39q20 -24 28 -55h-53q-7 27 -28 45t-49 22v-67h-6q-77 1 -118 50q-42 49 -44 137v0z" />
    <glyph glyph-name="weibo" unicode="&#xf18a;" horiz-adv-x="512" 
d="M407 270q5 19 -7 32v0q-12 13 -30 10q-17 -1 -20 13t13 20q39 6 62 -21q24 -26 14 -64q-7 -15 -21 -11q-14 5 -11 21v0zM215 1q-54 0 -103 17v0q-49 16 -80 47v0q-31 30 -32 73q2 68 76 143q51 50 96 67t68 2t10 -63q-2 -8 3 -8t8 2h1q62 25 97 12q35 -12 17 -63
q-4 -12 8 -14q67 -23 62 -74t-66 -94q-62 -44 -165 -47v0zM359 148q-6 42 -52 66v0q-46 25 -112 19q-65 -7 -105 -40q-41 -33 -38 -76q5 -42 52 -67q46 -24 111 -18q65 7 106 40q40 33 38 76v0zM348 413q-19 -7 -15 -23v0q4 -17 23 -15q37 6 66 -10q30 -16 43 -47
q14 -31 3 -67q-3 -19 13 -25q16 -5 24 13q15 51 -4 94q-18 43 -60 66q-41 24 -93 14v0zM269 102q-14 -30 -45 -43v0q-31 -13 -64 -3q-31 10 -42 36q-11 25 2 53q14 27 43 40t60 5q32 -9 46 -34q13 -24 0 -54v0zM183 132q-10 4 -21 0v0q-10 -3 -17 -13q-12 -22 9 -34
q10 -4 21 -1q11 4 18 14q11 22 -10 34v0zM216 145q-9 2 -15 -5q-4 -9 4 -13q9 -3 15 5q4 9 -4 13v0z" />
    <glyph glyph-name="renren" unicode="&#xf18b;" horiz-adv-x="512" 
d="M214 279q-1 -84 -41 -149v0q-41 -66 -107 -99q-56 67 -58 160q2 94 59 161t147 83v-156v0zM255 -56q-65 1 -118 30q43 28 75 67q31 40 43 88q12 -48 44 -88q31 -39 75 -67q-53 -29 -119 -30v0zM446 31q-66 33 -107 99v0q-40 65 -41 149v156q90 -16 147 -83t59 -161
q-2 -93 -58 -160v0z" />
    <glyph glyph-name="pagelines" unicode="&#xf18c;" horiz-adv-x="384" 
d="M384 135q-21 -50 -52 -66v0q-31 -16 -62 -12v0q-31 4 -52 14v0q-20 9 -21 10q-31 -62 -79 -98q-47 -35 -106 -36q-12 1 -12 12q0 10 12 12q49 1 89 30q41 29 68 80q-21 -9 -50 -10q-30 -1 -59 19q-30 19 -52 73q54 22 90 16q36 -5 58 -24q21 -19 30 -37q15 36 22 79
q-3 -1 -37 -1q-34 1 -70 21q-35 20 -43 79q59 21 93 1q33 -20 47 -48q13 -27 13 -30q1 14 2 33q1 18 1 20q-2 1 -25 23q-22 22 -33 59t20 83q60 -23 71 -61q12 -38 2 -68q-9 -31 -11 -33v-14v-19q-1 2 15 22q15 20 45 34q30 15 76 1q-5 -65 -39 -87t-67 -21q-33 0 -36 2
q-7 -41 -20 -78q1 3 25 21q24 19 63 26t84 -27v0z" />
    <glyph glyph-name="stack-exchange" unicode="&#xf18d;" 
d="M18 116h412v-22q0 -29 -19 -48q-18 -20 -46 -20h-19l-87 -90v90h-176q-28 0 -46 20q-19 19 -19 48v22v0zM18 139h412v85h-412v-85v0zM18 249h412v85h-412v-85v0zM365 448h-282q-28 -1 -46 -20q-19 -19 -19 -48v-22h412v22q0 29 -19 48q-18 19 -46 20v0z" />
    <glyph glyph-name="square-vimeo" unicode="&#xf194;" 
d="M400 416h-352q-20 -1 -34 -14q-13 -14 -14 -34v-352q1 -20 14 -34q14 -13 34 -14h352q20 1 34 14q13 14 14 34v352q-1 20 -14 34q-14 13 -34 14v0zM384 266q-2 -46 -65 -128q-66 -84 -111 -84q-28 0 -47 51q-6 21 -11 39q-13 52 -23 80q-10 27 -23 28q-4 0 -25 -15
l-15 19q10 9 21 18q22 21 41 36t32 16q37 4 46 -51q14 -96 27 -116q13 -19 40 26q20 32 21 48q2 24 -14 27q-15 2 -31 -5q24 78 90 75q50 -1 47 -64v0z" />
    <glyph glyph-name="slack" unicode="&#xf3ef;" 
d="M94 133q0 -20 -14 -33v0q-13 -14 -33 -14t-33 14q-13 13 -14 33q1 20 14 33t33 14h47v-47v0zM118 133q0 20 14 33v0q13 13 33 14q20 -1 33 -14t14 -33v-118q-1 -20 -14 -33t-33 -14q-20 1 -33 14q-14 13 -14 33v118v0zM165 322q-20 0 -33 14v0q-14 13 -14 33t14 33
q13 13 33 14q20 -1 33 -14t14 -33v-47h-47v0zM165 298q20 0 33 -14v0q13 -13 14 -33q-1 -20 -14 -33t-33 -14h-118q-20 1 -33 14t-14 33q1 20 14 33q13 14 33 14h118v0zM354 251q0 20 14 33v0q13 14 33 14t33 -14q13 -13 14 -33q-1 -20 -14 -33t-33 -14h-47v47v0zM330 251
q0 -20 -14 -33v0q-13 -13 -33 -14q-20 1 -33 14t-14 33v118q1 20 14 33t33 14q20 -1 33 -14q14 -13 14 -33v-118v0zM283 62q20 0 33 -14v0q14 -13 14 -33t-14 -33q-13 -13 -33 -14q-20 1 -33 14t-14 33v47h47v0zM283 86q-20 0 -33 14v0q-13 13 -14 33q1 20 14 33t33 14h118
q20 -1 33 -14t14 -33q-1 -20 -14 -33q-13 -14 -33 -14h-118v0z" />
    <glyph glyph-name="slack" unicode="&#xf198;" 
d="M94 133q0 -20 -14 -33v0q-13 -14 -33 -14t-33 14q-13 13 -14 33q1 20 14 33t33 14h47v-47v0zM118 133q0 20 14 33v0q13 13 33 14q20 -1 33 -14t14 -33v-118q-1 -20 -14 -33t-33 -14q-20 1 -33 14q-14 13 -14 33v118v0zM165 322q-20 0 -33 14v0q-14 13 -14 33t14 33
q13 13 33 14q20 -1 33 -14t14 -33v-47h-47v0zM165 298q20 0 33 -14v0q13 -13 14 -33q-1 -20 -14 -33t-33 -14h-118q-20 1 -33 14t-14 33q1 20 14 33q13 14 33 14h118v0zM354 251q0 20 14 33v0q13 14 33 14t33 -14q13 -13 14 -33q-1 -20 -14 -33t-33 -14h-47v47v0zM330 251
q0 -20 -14 -33v0q-13 -13 -33 -14q-20 1 -33 14t-14 33v118q1 20 14 33t33 14q20 -1 33 -14q14 -13 14 -33v-118v0zM283 62q20 0 33 -14v0q14 -13 14 -33t-14 -33q-13 -13 -33 -14q-20 1 -33 14t-14 33v47h47v0zM283 86q-20 0 -33 14v0q-13 13 -14 33q1 20 14 33t33 14h118
q20 -1 33 -14t14 -33q-1 -20 -14 -33q-13 -14 -33 -14h-118v0z" />
    <glyph glyph-name="wordpress" unicode="&#xf19a;" horiz-adv-x="512" 
d="M62 279l101 -278q-54 26 -86 77q-33 50 -34 114q1 47 19 87v0zM400 203q-3 38 -18 58l-2 4q-17 23 -19 46q0 16 10 27t26 11h2h1q-59 54 -144 56q-56 -1 -102 -26q-47 -26 -76 -70h14q18 0 36 1q19 1 21 1v0q8 0 9 -8q0 -7 -8 -9q-3 -1 -24 -2l77 -231l47 140l-33 91
q-20 1 -23 2q-8 1 -8 9q1 8 10 8q1 0 20 -1q18 -1 36 -1t36 1q19 1 20 1v0q9 0 10 -8q0 -7 -8 -9q-3 -1 -24 -2l76 -229l22 71q1 4 2 7q13 38 14 62v0zM260 173l-64 -185q29 -9 60 -9q37 0 71 12q-1 2 -2 3l-65 179v0zM443 294q1 -10 1 -22q1 -31 -16 -76l-65 -188
q48 28 77 76q28 48 29 108q-1 56 -26 102v0zM504 192q-1 -69 -34 -125v0q-33 -56 -89 -89v0q-56 -33 -125 -34q-69 1 -125 34t-89 89t-34 125q1 69 34 125t89 89t125 34q69 -1 125 -34t89 -89t34 -125v0zM493 192q-1 66 -33 119v0q-31 54 -85 85v0q-53 32 -119 33
q-66 -1 -119 -33q-54 -31 -85 -85q-32 -53 -33 -119q1 -66 33 -119q31 -54 85 -85q53 -32 119 -33q66 1 119 33q54 31 85 85q32 53 33 119v0z" />
    <glyph glyph-name="openid" unicode="&#xf19b;" 
d="M272 16l-68 -32q-89 9 -145 49q-57 40 -59 97q2 54 55 94q53 39 137 50v-43q-55 -10 -89 -37t-35 -64q1 -39 39 -67q37 -28 96 -36v340l68 33v-384h1zM448 157l-131 28l37 21q-30 18 -70 25v43q70 -9 120 -39l35 19l9 -97v0z" />
    <glyph glyph-name="yahoo" unicode="&#xf19e;" horiz-adv-x="512" 
d="M224 307l-57 -143l-56 143h-96l106 -249l-39 -90h94l141 339h-93zM329 171q-38 -2 -54 -36q-13 -35 13 -63q28 -26 63 -13q35 16 36 54q0 24 -17 41t-41 17v0zM395 416l-93 -223h104l93 223h-104z" />
    <glyph glyph-name="google" unicode="&#xf1a0;" horiz-adv-x="488" 
d="M488 186q-2 -108 -66 -174v0q-65 -66 -174 -68q-69 1 -125 34t-89 89t-34 125q1 69 34 125t89 89t125 34q101 -2 166 -65l-67 -65q-47 42 -105 38q-58 -3 -102 -44q-43 -42 -46 -112q2 -67 45 -111q44 -44 109 -46q49 1 79 20t45 43q14 25 17 44h-141v86h236q4 -18 4 -42
v0z" />
    <glyph glyph-name="reddit" unicode="&#xf1a1;" horiz-adv-x="512" 
d="M202 142q-23 3 -25 25q2 23 25 25q22 -2 24 -25q-2 -22 -24 -25v0zM504 192q-1 -69 -34 -125v0q-33 -56 -89 -89v0q-56 -33 -125 -34q-69 1 -125 34t-89 89t-34 125q1 69 34 125t89 89t125 34q69 -1 125 -34t89 -89t34 -125v0zM372 233q-15 0 -24 -10q-35 24 -86 27
l17 78l56 -12q2 -23 24 -25q23 2 25 25q-2 23 -25 25q-15 -1 -22 -14l-61 14q-5 0 -7 -5l-19 -86q-51 -3 -86 -27q-9 10 -24 10q-26 -2 -32 -25q-5 -23 18 -38q-2 -7 -2 -15q2 -41 39 -67q37 -27 93 -28q56 1 94 28q37 26 39 67q0 8 -2 16q22 14 17 37q-6 23 -32 25v0z
M303 117q-16 -14 -47 -14v0q-31 1 -47 14q-4 3 -8 0q-4 -5 0 -9q20 -17 55 -17t55 17q4 4 0 9q-4 3 -8 0v0zM311 192q-23 -2 -25 -25q2 -22 25 -25q22 3 24 25q-2 23 -24 25v0z" />
    <glyph glyph-name="square-reddit" unicode="&#xf1a2;" 
d="M283 102q4 -4 0 -9q-21 -18 -59 -18t-59 18q-4 5 0 9t9 0q16 -14 50 -14q33 0 50 14q5 4 9 0v0zM192 156q-2 25 -27 27q-24 -2 -26 -27q2 -24 26 -26q12 0 19 8q8 7 8 18v0zM283 183q-25 -2 -27 -27q0 -11 8 -18q7 -8 19 -8q24 2 26 26q-2 25 -26 27v0zM448 368v-352
q-1 -20 -14 -34q-14 -13 -34 -14h-352q-20 1 -34 14q-13 14 -14 34v352q1 20 14 34q14 13 34 14h352q20 -1 34 -14q13 -14 14 -34v0zM348 227q-15 0 -25 -10q-38 26 -93 28l19 84l59 -13q1 -11 8 -19q8 -7 19 -7t19 8q7 7 8 18q-1 12 -8 19q-8 8 -19 8q-16 -1 -24 -15
l-66 15q-5 1 -7 -5l-21 -93q-54 -3 -91 -29q-11 11 -26 11q-29 -2 -35 -27t19 -40q-2 -8 -2 -17q2 -43 42 -72t100 -30q61 1 101 30t41 72q1 9 -2 17q25 16 19 40q-6 25 -35 27v0z" />
    <glyph glyph-name="stumbleupon-circle" unicode="&#xf1a3;" horiz-adv-x="496" 
d="M256 440q-69 -1 -125 -34v0q-56 -33 -89 -89v0q-33 -56 -34 -125q1 -69 34 -125t89 -89t125 -34q69 1 125 34t89 89t34 125q-1 69 -34 125t-89 89t-125 34v0zM256 262q-16 -1 -18 -17v-107q-1 -32 -22 -52q-21 -21 -53 -22q-32 1 -53 22t-22 53v46h58v-46q1 -16 17 -17
q17 1 18 17v109q1 31 22 51q22 20 53 21q31 -1 53 -21q21 -21 22 -52v-23l-34 -10l-23 10v21q-2 16 -18 17v0zM424 139q-1 -32 -22 -53v0q-21 -21 -53 -22q-32 1 -53 22t-22 52v47l23 -11l34 10v-47q1 -16 18 -17q16 1 17 17v48h58v-40q0 -8 0 -6v0z" />
    <glyph glyph-name="stumbleupon" unicode="&#xf1a4;" horiz-adv-x="512" 
d="M503 182v-70q-1 -47 -33 -79t-79 -33q-48 1 -80 32q-32 32 -33 79v70l34 -16l52 16v-71q2 -24 26 -27q12 1 19 8q8 8 8 19v72h86v0zM278 240l35 -16l51 15v36q-2 47 -34 77q-31 31 -78 32q-47 -1 -79 -32q-32 -30 -34 -76v-163q-2 -24 -26 -26q-25 2 -27 26v69h-86v-70
q1 -47 33 -79t79 -33q48 1 80 32q32 32 33 79v160q0 11 8 19q7 8 19 8q11 0 18 -8q8 -8 8 -19v-31v0z" />
    <glyph glyph-name="delicious" unicode="&#xf1a5;" 
d="M447 380q-1 1 -1 2v0q-1 1 -1 2q-1 4 -3 8q-2 3 -5 6q-3 4 -7 7q-1 2 -3 3v0l-4 2q-3 2 -6 3q-2 1 -5 1q-6 2 -12 2h-352q-20 -1 -34 -14q-13 -14 -14 -34v-352q0 -6 2 -12q3 -12 11 -20q1 -2 3 -4q8 -8 20 -11q6 -1 12 -1h352q20 0 34 14t14 34v352q0 6 -1 12v0zM416 16
q-1 -15 -16 -16h-176v192h-192v176q1 15 16 16h176v-192h192v-176z" />
    <glyph glyph-name="digg" unicode="&#xf1a6;" horiz-adv-x="512" 
d="M82 276h-82v-175h133v251h-51v-76v0zM82 142h-31v93h31v-93v0zM379 276v-175h82v-28h-82v-41h133v244h-133v0zM461 142h-31v93h31v-93v0zM225 101h82v-28h-82v-41h133v244h-133v-175v0zM276 235h31v-93h-31v93v0zM153 352h52v-51h-52v51v0zM153 276h52v-175h-52v175v0z
" />
    <glyph glyph-name="pied-piper-pp" unicode="&#xf1a7;" 
d="M205 273q0 -16 -9 -27v0q-9 -10 -22 -11q-11 0 -18 4v68q7 4 18 4q13 0 22 -11t9 -27v0zM258 206q-11 0 -17 -4v-68q6 -4 17 -4q13 1 22 12q9 10 10 26q-1 17 -10 27q-9 11 -22 11v0zM448 368v-352q-1 -20 -14 -34q-14 -13 -34 -14h-352q-20 1 -34 14q-13 14 -14 34v352
q1 20 14 34q14 13 34 14h352q20 -1 34 -14q13 -14 14 -34v0zM185 193q32 1 52 23v0q21 23 22 56q-1 34 -22 57q-20 22 -52 23q-18 0 -35 -9h-45v-206l52 10v51q12 -5 28 -5v0zM343 168q0 33 -21 56v0q-21 22 -52 23h-10q-6 -19 -19 -34q-22 -23 -52 -25v-156l52 10v51
q13 -5 28 -5q32 1 53 23q21 23 21 57v0z" />
    <glyph glyph-name="pied-piper-alt" unicode="&#xf1a8;" horiz-adv-x="576" 
d="M244 202q-5 3 -10 3t-10 -2q-5 -1 -9 -2l1 -5zM380 4q-16 0 -41 -6v0q-25 -6 -39 -14l7 -45q53 -10 106 10l-3 6q-6 14 -15 31t-15 18v0zM341 271q7 -3 19 -17v0q1 -3 4 -5v0q5 3 7 8q0 4 -5 9q-6 6 -8 14q11 6 25 7l12 2q102 23 147 117q11 19 13 40l-2 -3q-4 -7 -8 -13
q-15 -28 -29 -45q-13 -18 -45 -42q-49 -34 -106 -54h-7v22q-17 0 -22 12q-3 6 -9 11q-6 -6 -11 -12q-18 -25 -48 -39q-18 -6 -26 -22q28 12 60 12q31 1 39 -2v0zM556 448l-1 -1v-1v1zM496 66q-24 45 -59 80v0q-35 35 -91 35v6q0 7 11 7q7 1 15 5t9 19l-14 -7q-6 14 -9 23
q-5 19 -15 26q-9 6 -42 5q-21 0 -41 -4q6 -29 -11 -50l19 -6q-2 -5 -2 -10q1 -12 18 -12q9 -1 16 -5q8 -4 8 -16q-1 -16 -20 -37t-35 -23q-4 0 -17 13q-13 12 -24 27q-11 14 -12 20v4l53 12q9 3 9 12q-1 9 -12 10q-4 0 -18 -3t-25 -6q-5 -1 -7 -1q-3 11 -13 14q-3 0 -6 -2
l-4 -2t-6 -1q-8 -1 -14 -5q-7 -4 -1 -14l-140 -31q-9 -2 -9 -11q1 -10 12 -11q6 0 38 7t65 15q34 8 44 10l2 -2q2 -4 6 -7q14 -12 33 -40q13 -17 24 -31q12 -14 19 -14q19 0 40 13q20 13 31 28q5 8 13 7q-3 -12 -19 -27q-12 -10 -14 -16q-1 -9 -1 -23q0 -13 1 -19
q24 -5 48 1q14 2 29 2q2 7 3 14q7 25 7 50v9q-1 23 -8 33q-6 10 -20 21q-3 2 -7 5v0l-4 4q1 0 1 1q1 0 4 1q37 -2 52 -39q14 -36 21 -83q5 -34 13 -64q9 -29 26 -44q16 7 33 14q37 14 70 33q-2 2 -4 3q-20 18 -37 35q-17 18 -32 42v0zM300 20v-27l12 3l-3 24h-9zM231 170
l24 -61l22 14l-32 51zM316 15l2 -12q2 0 7 1q14 2 32 5t19 8v3q-1 1 -1 2q-24 -1 -39 -4q-9 -1 -20 -3v0z" />
    <glyph glyph-name="drupal" unicode="&#xf1a9;" 
d="M304 340q-28 26 -50 53v0q-22 26 -30 55q-8 -28 -30 -55q-22 -26 -50 -53v0v0q-42 -40 -77 -89t-37 -116q0 -83 54 -139q53 -56 136 -60q82 0 138 54t60 136v9q-2 67 -37 116t-77 89v0v0zM130 117q-9 -11 -16 -24q-1 -2 -3 -3h-2q-3 0 -6 4l-3 4v0v0q-2 3 -3 7l-1 2
q-8 20 -5 40q2 20 3 22v0q8 27 23 50q10 14 22 27l9 -9l43 -44q3 -4 0 -7l-45 -50v0zM226 -10q-42 2 -61 39q-15 40 11 72q11 13 24 26q12 13 27 30q31 -34 51 -58q2 -2 3 -5q12 -17 12 -38q0 -27 -19 -47q-20 -19 -48 -19v0zM352 96v0q-1 -4 -6 -5h-1q-4 1 -6 5v0
q-18 26 -40 49l-18 19l-59 61q-18 17 -35 36q-1 1 -1 2q-3 4 -5 9v1q-2 17 9 28q18 17 34 35q17 -19 35 -36q2 -1 3 -3v0q38 -36 69 -79q27 -37 27 -83q0 -20 -6 -39v0z" />
    <glyph glyph-name="joomla" unicode="&#xf1aa;" 
d="M1 356q0 26 17 42v0q17 17 42 18q23 0 39 -14q17 -14 21 -36q50 13 96 -30l-44 -45q-16 15 -31 15q-15 -1 -25 -11q-10 -11 -10 -26t10 -26l100 -100l-44 -44l-51 51q-13 12 -18 17q-3 4 -10 11l-21 21q-20 20 -26 46q-6 27 1 53q-20 4 -33 20t-13 38v0zM130 239l44 -44
v0q7 6 28 28l44 44l28 28q11 11 26 11t26 -11q10 -10 11 -25q0 -15 -14 -30l44 -45q45 49 28 101q23 4 37 20q15 17 15 40q0 26 -17 42q-17 17 -42 18q-24 0 -40 -15q-16 -14 -20 -37q-26 8 -52 2q-26 -7 -46 -27q-13 -13 -38 -37q-24 -25 -47 -48l-15 -15v0zM396 87
q7 25 0 50v0q-7 25 -26 44q-2 2 -3 4l-7 7t-25 24q-19 20 -64 65l-45 -44l100 -100q11 -11 11 -26t-11 -26q-10 -10 -25 -11q-15 0 -30 14l-44 -44q21 -22 48 -29q28 -7 54 1q5 -21 21 -34t38 -14q26 1 42 18q17 17 18 42q0 23 -15 40q-14 16 -37 19v0zM312 140l-44 45
l-52 -52q-12 -12 -17 -18q-4 -3 -11 -10q-6 -7 -20 -20q-11 -11 -26 -11q-14 0 -26 11q-10 10 -10 25q-1 15 14 30l-44 45q-44 -47 -30 -99q-20 -5 -33 -20q-13 -16 -13 -38q1 -26 18 -42q16 -17 42 -18q22 0 38 13q15 13 20 34q25 -6 50 0q25 7 45 26q9 9 14 15q6 5 10 10
q7 6 22 22q16 16 53 52v0z" />
    <glyph glyph-name="behance" unicode="&#xf1b4;" horiz-adv-x="576" 
d="M232 211q48 21 48 74q-1 52 -33 70q-33 19 -80 18h-167v-355h172q50 0 86 25q37 24 39 78q0 69 -65 90v0zM78 312h73q22 1 37 -8q16 -8 16 -32q0 -23 -13 -33t-34 -10h-79v83v0zM161 78h-83v98h85q54 2 56 -51q-1 -26 -17 -37q-16 -10 -41 -10v0zM520 319h-144v35h144
v-35v0zM576 143q0 58 -32 98v0q-32 39 -93 41q-59 -1 -95 -39q-35 -38 -36 -97q0 -61 35 -97q35 -37 96 -38q92 0 120 87h-62q-6 -17 -22 -25q-17 -9 -34 -9q-62 2 -63 66h185q1 6 1 13v0zM390 174q6 53 59 55q52 -2 56 -55h-115v0z" />
    <glyph glyph-name="square-behance" unicode="&#xf1b5;" 
d="M187 155q-3 -27 -32 -25h-45v52h46q29 1 31 -27v0zM179 237q-1 13 -9 18v0q-8 4 -20 4h-40v-45h43q24 0 26 23v0zM311 214q-29 -1 -32 -30h63q-3 29 -31 30v0zM448 368v-352q-1 -20 -14 -34q-14 -13 -34 -14h-352q-20 1 -34 14q-13 14 -14 34v352q1 20 14 34q14 13 34 14
h352q20 -1 34 -14q13 -14 14 -34v0zM272 263h78v19h-78v-19v0zM229 153q0 39 -35 51q26 10 26 37q-1 28 -18 38q-18 10 -43 10h-91v-192h93q27 0 47 13q20 14 21 43v0zM380 167q0 32 -17 54v0q-18 21 -51 22q-32 -1 -51 -21q-19 -21 -20 -53q1 -33 19 -52q19 -20 52 -21
q50 0 66 47h-34q-3 -9 -12 -13q-9 -5 -18 -5q-34 1 -35 35h101v3v4v0z" />
    <glyph glyph-name="steam" unicode="&#xf1b6;" horiz-adv-x="496" 
d="M496 192q-1 -69 -34 -125v0q-33 -56 -89 -89v0q-56 -33 -125 -34q-87 2 -152 51q-64 50 -87 129l95 -39q5 -24 24 -40t45 -16q30 0 50 21t20 52l84 60q41 0 68 27q27 26 28 67q-1 40 -27 66q-27 26 -66 27q-40 -1 -67 -27q-26 -26 -27 -66v-1l-59 -86q-24 1 -44 -12
l-133 55q10 98 79 162q68 64 169 66q69 -1 125 -34t89 -89t34 -125v0zM156 64l-31 12q9 -18 27 -25q21 -9 41 -1q19 8 28 29q9 20 1 40q-9 20 -29 29q-20 8 -39 0l32 -13q15 -6 21 -21q5 -14 0 -29q-7 -15 -22 -21q-14 -6 -29 0v0zM330 194q-27 0 -45 18v0q-17 17 -18 44
q1 26 18 44q18 18 45 18q26 0 44 -18q17 -18 18 -44q-1 -27 -18 -44q-18 -18 -44 -18v0zM330 209q20 1 33 14v0q13 13 14 33q-1 20 -14 33t-33 14q-20 -1 -34 -14q-13 -13 -13 -33t14 -33q13 -13 33 -14v0z" />
    <glyph glyph-name="square-steam" unicode="&#xf1b7;" 
d="M185 91q6 15 0 28v0q-5 14 -19 20l-30 12q18 7 37 0q18 -9 26 -27q8 -19 0 -38t-27 -26q-18 -8 -37 0q-18 7 -26 24l29 -12q14 -6 27 0q14 5 20 19v0zM400 416h-352q-20 -1 -34 -14q-13 -14 -14 -34v-161l117 -48q18 13 40 11l56 81v1q1 37 25 62q25 24 62 25
q37 -1 62 -25q25 -25 26 -62q-1 -38 -27 -63q-25 -25 -63 -25l-79 -56q1 -30 -18 -49t-47 -20q-25 1 -42 15q-18 15 -23 38l-89 37v-113q1 -20 14 -34q14 -13 34 -14h352q20 1 34 14q13 14 14 34v352q-1 20 -14 34q-14 13 -34 14v0zM300 193q-24 1 -41 18v0q-16 16 -17 41
q1 25 17 41q17 16 41 17q25 -1 42 -17q16 -16 17 -41q-1 -25 -17 -41q-17 -17 -42 -18v0zM300 208q19 1 31 13v0q13 12 13 31t-13 31q-12 12 -31 13q-18 -1 -31 -13q-12 -12 -12 -31t12 -31q13 -12 31 -13v0z" />
    <glyph glyph-name="spotify" unicode="&#xf1bc;" horiz-adv-x="496" 
d="M248 440q-69 -1 -125 -34v0q-56 -33 -89 -89v0q-33 -56 -34 -125q1 -69 34 -125t89 -89t125 -34q69 1 125 34t89 89t34 125q-1 69 -34 125t-89 89t-125 34v0zM349 75q-6 0 -11 4q-47 27 -100 32q-53 4 -107 -8q-1 0 -2 -1q-6 -1 -10 -1q-15 1 -15 15q1 15 13 17
q62 14 123 10q60 -5 114 -36q10 -4 10 -17q-2 -14 -15 -15v0zM376 141q-7 0 -11 3v0q-1 1 -2 1q-48 28 -111 37q-64 9 -127 -8q-2 0 -4 -1q-4 -1 -8 -1q-18 1 -20 19q0 16 16 21q20 6 44 10q23 3 54 3q100 0 177 -45q11 -7 11 -20q-2 -18 -19 -19v0zM407 217q-7 0 -13 4
q-57 32 -137 39q-79 8 -144 -10h-2q-5 -2 -11 -2q-22 2 -23 23q2 21 17 24q53 16 118 16q55 0 109 -12q53 -12 96 -36q12 -6 13 -23q-3 -22 -23 -23v0z" />
    <glyph glyph-name="deviantart" unicode="&#xf1bd;" horiz-adv-x="320" 
d="M320 355l-98 -179l7 -10h91v-128h-161l-13 -9l-44 -84q-3 -2 -8 -8l-1 -1h-93v93l93 180l-7 9h-86v127h156l14 10l43 84q3 2 8 8l1 1h98v-93v0z" />
    <glyph glyph-name="soundcloud" unicode="&#xf1be;" horiz-adv-x="640" 
d="M111 192l6 -65l-6 -69q0 -4 -4 -4t-4 4l-6 69l6 65q0 3 4 4q4 -1 4 -4v0zM133 237q-5 0 -5 -5l-5 -105l5 -69q0 -4 5 -5q4 1 5 5l5 69l-5 105q-1 5 -5 5v0zM158 261q-5 0 -5 -5l-5 -130l5 -68q0 -5 5 -5t6 5l5 68l-5 130q-1 5 -6 5v0zM7 165q-2 0 -2 -3l-5 -35l5 -35
q0 -3 2 -3t3 3l5 35l-5 35q-1 3 -3 3v0zM31 187q-2 -1 -3 -3l-6 -57l6 -56q1 -3 3 -3t3 2l7 57l-7 57q-1 2 -3 3v0zM56 198q-3 0 -3 -3l-6 -68l6 -66q0 -3 3 -3t3 3l7 66l-7 68q0 3 -3 3v0zM81 200q-3 0 -3 -3l-6 -70l6 -68q0 -4 3 -4q4 0 4 4l7 68l-7 70q0 3 -4 3v0z
M323 311l-4 2q-4 -1 -6 -2q-3 -3 -3 -7v-1l-4 -177l2 -32l2 -32q1 -8 9 -8t8 8l4 64l-4 178q0 5 -4 7v0zM296 296q-2 1 -4 1q-3 0 -5 -1q-3 -2 -3 -7l-1 -2l-2 -160q0 2 0 -9q0 -10 3 -57v0q0 -3 1 -5q3 -3 7 -3q3 0 5 2q3 3 3 6v7l3 58l-3 163q-1 5 -4 7v0zM185 273
q-6 0 -6 -6l-5 -140l5 -68q1 -5 6 -5t6 5l5 68l-5 140q-1 6 -6 6v0zM561 211q-16 -1 -30 -7q-6 55 -45 90q-38 36 -93 37q-28 0 -51 -10q-8 -2 -8 -9v-249q1 -8 9 -10h218q34 1 56 23t23 56q-1 33 -23 55q-22 23 -56 24v0zM265 271q-7 -1 -8 -8l-3 -137l3 -65q1 -7 8 -8
q7 1 7 8l4 65l-4 137q-1 7 -7 8v0zM211 279q-6 -1 -6 -7l-4 -145l4 -67q1 -6 6 -7q6 1 7 7l4 67l-4 145q-1 6 -7 7v0zM238 275q-7 0 -7 -7l-4 -141l4 -67q1 -6 7 -7q6 1 7 7l4 67l-4 141q-1 7 -7 7v0z" />
    <glyph glyph-name="vine" unicode="&#xf1ca;" horiz-adv-x="384" 
d="M384 193v-52q-28 -6 -52 -6q-30 -59 -68 -102t-57 -54q-20 -13 -43 1q-15 7 -47 43t-65 113q-34 78 -52 209h75q14 -117 45 -187t69 -115q43 44 76 107q-38 20 -59 58q-21 39 -21 88q0 50 27 82q26 32 75 33q56 -2 78 -35q21 -33 19 -76q-2 -42 -15 -70q-3 -2 -26 -1
q-23 0 -38 21q7 20 8 49q-1 46 -28 46q-29 0 -31 -50q2 -60 39 -87t91 -15v0z" />
    <glyph glyph-name="codepen" unicode="&#xf1cb;" horiz-adv-x="512" 
d="M502 288l-234 156q-12 8 -24 0l-234 -156q-10 -6 -10 -18v-156q0 -11 10 -18l234 -156q12 -8 24 0l234 156q10 7 10 18v156q0 12 -10 18v0zM278 385l172 -115l-77 -51l-95 63v103v0zM234 385v-103l-95 -63l-77 51l172 115v0zM44 229l55 -37l-55 -37v74v0zM234 -1
l-172 115l77 51l95 -63v-103v0zM256 140l-78 52l78 52l78 -52l-78 -52v0zM278 -1v103l95 63l77 -51l-172 -115v0zM468 155l-55 37l55 37v-74v0z" />
    <glyph glyph-name="jsfiddle" unicode="&#xf1cc;" horiz-adv-x="576" 
d="M511 211q-7 3 -7 10q0 6 -1 11q-2 20 -8 38q-19 51 -59 80q-41 29 -90 34q-50 4 -98 -22q-41 -23 -65 -64q-2 1 -3 2q-3 1 -5 2q-46 19 -85 -9q-39 -29 -33 -77q0 -5 -5 -9q-30 -23 -41 -56t0 -69q11 -35 40 -57q28 -22 65 -24q35 -1 69 -1h22h68q92 0 184 1q40 1 70 25
q29 23 38 62q9 37 -6 70q-16 33 -50 53v0zM532 54q-28 -35 -72 -36q-60 -1 -121 0h-49q-3 -1 -42 -1q-40 0 -79 1h-43q-67 0 -95 60q-14 32 -4 64q9 32 38 52q14 7 10 23q-7 40 27 63t72 3q2 -1 4 -3q5 -3 9 -3t9 8q21 40 61 62q50 26 102 17t89 -48q36 -39 39 -102
q-1 -11 10 -16q43 -22 53 -64q11 -42 -18 -80v0zM444 134q-5 -24 -24 -39v0q-18 -15 -43 -16q-25 1 -44 18q-16 15 -37 37q-16 17 -32 32q-15 15 -27 24q-31 22 -60 -4q-24 -23 -16 -49q7 -26 32 -37q24 -12 51 9q3 3 5 6q4 4 8 7q7 4 12 1q6 -3 1 -12q-14 -20 -35 -27
q-21 -8 -44 -2q-22 7 -35 26q-13 18 -14 44q2 35 36 56q35 20 67 -2q38 -31 62 -60q23 -26 45 -41q19 -12 38 -7t31 24q13 26 2 48t-34 28q-24 7 -47 -13l-4 -4q-3 -4 -7 -7q-9 -5 -12 0q-4 5 -1 10q32 45 83 28q24 -9 36 -30q11 -22 7 -48v0z" />
    <glyph glyph-name="rebel" unicode="&#xf1d0;" horiz-adv-x="512" 
d="M257 -56q-71 1 -126 35v0q-56 35 -88 92v0q-31 57 -30 127q2 60 32 112t85 88v1q1 0 1 -1q-6 -4 -28 -40t-27 -86q-5 -51 41 -101q25 -23 45 -22q20 0 32 9t13 11v0q18 26 17 55q-2 29 -9 49q-8 21 -9 22q-9 19 -26 29q-18 11 -20 11v0l29 32q19 -10 31 -24t12 -15v0
q0 23 -10 42q-10 18 -11 19l44 51l44 -50q-14 -23 -18 -42t-3 -21v0q11 18 26 29q16 10 17 11v0l29 -32q-21 -9 -33 -23q-13 -15 -13 -17v0q-13 -23 -16 -60t17 -67q17 -21 37 -19q20 1 35 11q15 9 15 10v0q38 36 42 74q5 39 -8 73q-13 35 -28 56q-15 22 -16 22q-4 4 -2 4
t3 -1q40 -25 76 -71q36 -45 40 -134q-1 -111 -67 -179q-67 -68 -175 -70v0z" />
    <glyph glyph-name="empire" unicode="&#xf1d1;" horiz-adv-x="496" 
d="M288 394q-17 3 -34 3v19q59 -3 107 -31t78 -76l-16 -9q-9 14 -20 27l-18 -16q-40 46 -102 59l5 24v0zM53 126l23 7q-9 28 -10 59q0 31 10 59l-23 7q6 17 14 31l-16 10q-26 -49 -27 -107q1 -58 27 -107l16 9q-8 15 -14 32v0zM213 14q-62 13 -102 59l-18 -16q-11 13 -20 27
l-16 -9q30 -47 78 -76q48 -28 107 -31v19q-17 0 -34 3l5 24v0zM93 327l18 -15q40 45 102 58l-4 24q16 3 33 3v19q-59 -3 -107 -31t-78 -76l16 -9q9 15 20 27v0zM403 57l-18 16q-40 -46 -102 -59l5 -24q-17 -3 -34 -3v-19q59 3 107 31q48 29 78 76l-16 9q-9 -14 -20 -27v0z
M496 192q-1 -69 -34 -125v0q-33 -56 -89 -89v0q-56 -33 -125 -34q-69 1 -125 34t-89 89t-34 125q1 69 34 125t89 89t125 34q69 -1 125 -34t89 -89t34 -125v0zM484 192q-1 66 -32 119v0q-32 53 -85 85v0q-53 31 -119 32q-66 -1 -119 -32q-53 -32 -85 -85q-31 -53 -32 -119
q1 -66 32 -119q32 -53 85 -85q53 -31 119 -32q66 1 119 32q53 32 85 85q31 53 32 119v0zM445 299l-16 -10q8 -14 14 -31l-23 -7q10 -28 10 -59q-1 -31 -10 -59l23 -7q-6 -16 -14 -31l16 -9q26 47 27 106q-1 58 -27 107v0zM262 121q25 5 41 23l51 -44q18 20 27 46l-64 23
q3 11 4 23q-1 12 -4 24l64 22q-9 26 -27 46l-51 -44q-16 18 -41 23l13 67q-13 3 -27 3t-27 -3l13 -67q-25 -5 -40 -23l-52 44q-18 -20 -27 -46l64 -22q-3 -12 -3 -24t3 -23l-64 -23q9 -26 27 -46l52 44q15 -18 40 -23l-13 -67q13 -2 27 -3q14 1 27 3l-13 67v0z" />
    <glyph glyph-name="square-git" unicode="&#xf1d2;" 
d="M101 114q11 -1 20 -2v0q23 -1 31 -2v0q8 -2 8 -8q-2 -10 -17 -14q-16 -3 -32 0t-17 12q1 8 7 14v0zM129 230q-25 -2 -25 -22v0q-1 -19 24 -22q24 3 24 22q0 20 -23 22v0zM448 368v-352q0 -20 -14 -34t-34 -14h-352q-20 0 -34 14t-14 34v352q0 20 14 34t34 14h352
q20 0 34 -14t14 -34v0zM221 299q1 -23 23 -23t23 23q-1 22 -23 22t-23 -22v0zM199 253h-49q-22 6 -51 -2q-28 -7 -31 -45q2 -28 22 -38v0q-23 -19 -23 -31q-1 -10 11 -16q-14 -11 -14 -26q-3 -31 64 -32q68 1 69 46q1 24 -19 31q-19 6 -61 7q-7 1 -14 1l8 14q9 -3 27 -2
q17 1 32 10q14 10 15 34q-1 17 -9 26l23 1v22zM284 143l-13 2q-5 0 -5 5v105h-52l-3 -20q4 -2 7 -2q12 -3 10 -8v-75q2 -6 -10 -6q-3 0 -7 -1v-20h72zM384 133l-7 22q-28 -9 -33 0q-6 10 -5 16v1v61h38v25h-36v0q-2 -1 -2 5v34h-24q-2 -40 -34 -42v-22h10q13 1 10 -3v-66
q-2 -42 42 -41q23 1 41 10v0z" />
    <glyph glyph-name="git" unicode="&#xf1d3;" horiz-adv-x="512" 
d="M216 290h-79q-21 5 -52 3q-30 -2 -54 -20q-23 -18 -24 -58q2 -46 35 -61h-1q-18 -17 -27 -28q-10 -10 -9 -21q-2 -18 17 -27q-22 -17 -22 -42q-1 -24 23 -37t79 -13q109 1 111 73q1 39 -30 49t-98 12q-11 1 -23 2l13 21q15 -4 43 -3q28 2 51 17q23 16 25 54q-2 28 -15 41
l37 3v35zM153 48q-2 -16 -27 -22v0q-26 -5 -51 0v0q-25 4 -27 19q1 12 11 22q18 -1 32 -2q37 -2 50 -5t12 -12v0zM102 182q-26 2 -35 19v0q-8 17 1 34v0q9 17 35 18q25 -1 34 -18q8 -17 -1 -34q-8 -17 -34 -19v0zM235 82v32q7 1 11 1q12 1 14 3q3 2 3 7v119q0 5 -3 7t-13 6
q-5 1 -12 4l5 33h84v-169q-1 -8 7 -8l20 -3v-32h-116zM288 326q-36 1 -37 37q1 35 37 35t37 -35q-1 -36 -37 -37v0zM512 98q-29 -15 -66 -17q-36 0 -52 16q-15 15 -15 50v106v1q1 3 -4 3q-5 1 -28 0v36q27 3 39 19q13 15 16 48h38v-35q0 -21 1 -25q0 -3 3 -2h57v-41h-61v-97
v-1q0 -6 2 -16q3 -11 16 -16q13 -4 43 6z" />
    <glyph glyph-name="hacker-news" unicode="&#xf1d4;" 
d="M0 416v-448h448v448h-448v0zM21 219v0v0v0v0v0zM239 165v-101h-31v103l-80 153h37q30 -56 41 -79q10 -23 13 -33q3 -6 6 -14q4 10 7 18q3 9 13 31q11 22 40 77h35l-81 -155v0z" />
    <glyph glyph-name="tencent-weibo" unicode="&#xf1d5;" horiz-adv-x="384" 
d="M72 -48q0 -15 -13 -16v0q-13 -1 -16 13q-8 98 20 178q27 80 81 135q-11 28 4 52t47 26q23 -1 39 -17q15 -15 16 -39q-2 -34 -30 -48q-27 -15 -57 3q-50 -53 -74 -126q-24 -72 -17 -161v0zM192 448q-64 -2 -107 -39v0q-43 -37 -56 -93v0q-12 -55 15 -110q8 -13 19 -7
q12 6 7 20q-22 47 -11 93q11 45 46 75q36 30 87 31q58 -1 97 -40q38 -39 40 -97q-1 -46 -26 -79q-24 -34 -62 -49q-39 -15 -80 -5q-15 2 -17 -11q-3 -13 11 -18q56 -11 102 9t73 61q28 40 29 92q-2 71 -49 118t-118 49v0z" />
    <glyph glyph-name="qq" unicode="&#xf1d6;" 
d="M434 28q-7 0 -17 13v0q-10 12 -19 25v0q-9 13 -9 14v0v0q0 -24 -13 -51q-12 -28 -38 -50q15 -5 32 -14q18 -9 14 -21q-6 -6 -37 -7q-32 -2 -68 0q-36 1 -55 3q-19 -2 -55 -3q-36 -2 -68 0q-31 1 -37 7q-4 12 14 21q17 9 32 14q-26 22 -38 50q-13 27 -13 51q0 -1 -9 -14
t-19 -25q-10 -13 -17 -13q-5 0 -5 23q-1 24 15 76q6 20 13 40q8 20 18 44q4 10 9 22q-3 90 36 151q38 62 124 64q85 -2 124 -63t36 -152q5 -12 9 -22q10 -24 18 -44q7 -20 13 -40q16 -52 15 -76q0 -23 -5 -23v0z" />
    <glyph glyph-name="weixin" unicode="&#xf1d7;" horiz-adv-x="576" 
d="M385 280q10 0 19 -1q-14 60 -69 98q-54 38 -127 39q-83 -2 -138 -48t-57 -117q2 -81 78 -132l-19 -59l68 34q5 -1 11 -2q28 -6 57 -7q9 0 18 1q-6 19 -6 40q2 66 48 109q46 44 117 45v0zM281 333q23 -1 24 -24q-1 -23 -24 -24q-12 0 -20 6q-9 7 -10 18q1 11 10 18
q8 6 20 6v0zM144 285q-11 0 -20 6v0q-9 7 -9 18t9 18q9 6 20 6q24 -1 25 -24q-1 -23 -25 -24v0zM563 129q-2 60 -50 99v0q-48 40 -115 42q-72 -2 -118 -42q-46 -39 -48 -99q2 -60 48 -100t118 -42q27 1 55 9q1 1 3 1l54 -29l-15 48q30 23 49 51q18 29 19 62v0zM344 153
q-8 0 -13 6v0q-6 6 -6 14q0 7 6 13q5 6 13 6q23 -2 24 -19q-1 -18 -24 -20v0zM451 153q-8 0 -13 6v0q-6 6 -6 14q0 7 6 13q5 6 13 6q23 -2 24 -19q-1 -18 -24 -20v0z" />
    <glyph glyph-name="slideshare" unicode="&#xf1e7;" horiz-adv-x="512" 
d="M188 294q-26 0 -44 -17v0q-17 -16 -18 -40q1 -25 18 -41q18 -16 44 -17q26 1 43 17q18 16 18 41q0 24 -18 40q-17 17 -43 17v0zM331 294q-26 0 -44 -17v0q-17 -16 -18 -40q1 -25 18 -41q18 -16 44 -17q26 1 44 17q17 16 18 41q-1 24 -18 40q-18 17 -44 17v0zM488 204
l-6 -4v198q-1 21 -14 35t-32 15h-359q-20 -1 -33 -15t-13 -35v-198l-4 2q-1 1 -3 2q-11 7 -17 1q-5 -7 1 -18q27 -37 107 -72q-20 -72 -3 -114q17 -43 50 -57q32 -15 59 -2q27 12 28 48v3v38v56q3 -1 6 -1l8 -2v-55v-36v-3q1 -36 28 -49q27 -12 59 3q33 14 50 56
q17 43 -2 114q79 36 106 72q6 12 1 19q-5 6 -17 -1v0zM457 185q-48 -25 -88 -29v0q-39 -3 -65 -1v0h-7q-34 0 -34 -25q-17 14 -20 18q-8 8 -28 7h-8q-25 -2 -64 1q-38 4 -85 27v193q0 25 9 36q8 10 32 9h317q44 2 41 -45v-191v0z" />
    <glyph glyph-name="twitch" unicode="&#xf1e8;" horiz-adv-x="512" 
d="M391 345h-38v-110h38v110zM285 345h-39v-110h39v110zM121 448l-97 -91v-330h116v-91l97 91h77l174 165v256h-367zM449 210l-77 -73h-77l-68 -64v64h-87v274h309v-201z" />
    <glyph glyph-name="yelp" unicode="&#xf1e9;" horiz-adv-x="384" 
d="M43 208l100 -49q14 -8 12 -23q-1 -14 -17 -20l-107 -26q-11 -3 -19 3t-10 16q-5 44 9 85q4 10 13 14q10 4 19 0v0zM87 -32q36 -24 79 -32q10 -1 19 5q7 7 8 17l4 111q-1 16 -14 22q-14 5 -26 -6l-74 -82q-7 -8 -6 -18q2 -11 10 -17v0zM232 78l59 -94q6 -8 16 -10t18 5
q34 28 53 67q4 10 0 19q-4 10 -14 13l-105 34q-16 4 -25 -7q-9 -12 -2 -27v0zM381 211q-18 40 -51 69q-8 7 -18 5q-10 -1 -16 -10l-62 -91q-8 -15 1 -27q8 -12 24 -8l107 30q10 3 14 13q5 9 1 19v0zM62 418q-9 -5 -12 -14q-3 -10 2 -18l104 -181q11 -14 26 -10t17 22v208
q0 10 -7 17q-8 7 -18 6q-58 -5 -112 -30v0z" />
    <glyph glyph-name="paypal" unicode="&#xf1ed;" horiz-adv-x="384" 
d="M111 152q-2 -11 -6 -38v0q-4 -28 -9 -56v0q-4 -26 -6 -40q0 -2 -3 -2h-75q-12 1 -12 13l59 372q4 16 20 17q43 0 73 1q61 0 85 -2q25 -1 46 -10q44 -18 52 -56q9 -38 -8 -84q-17 -47 -53 -69q-36 -21 -87 -22h-23q-22 2 -36 -2q-13 -4 -17 -22v0zM357 296q-2 3 -3 -1
q-3 -17 -9 -34q-19 -52 -53 -74q-35 -22 -72 -27q-38 -4 -67 -3h-12q-10 0 -11 -9q-17 -103 -22 -138q-6 -34 -5 -32q-1 -12 10 -13h64q14 1 17 15v1l2 14q3 13 13 76q3 15 9 18q7 3 16 2h4q54 -1 92 25t51 87q5 27 1 52t-25 41v0z" />
    <glyph glyph-name="google-wallet" unicode="&#xf1ee;" 
d="M157 321q55 -89 84 -162q-12 -51 -31 -99q-10 40 -22 77q-13 37 -34 72q5 37 3 76v36v0zM109 248h-93q-11 -2 -6 -13q62 -82 91 -187h104q-12 52 -31 100q-19 49 -52 93q-5 7 -13 7v0zM157 336q53 -81 92 -174v0q39 -94 46 -194h114q-10 104 -48 197t-95 171h-109v0z
M409 404q-4 11 -15 12h-89q-8 -1 -7 -10q20 -70 26 -146q73 -131 91 -271q12 46 18 98q7 52 7 105q-1 111 -31 213v-1z" />
    <glyph glyph-name="cc-visa" unicode="&#xf1f0;" horiz-adv-x="576" 
d="M470 217q1 -2 4 -20v0q4 -17 5 -25h-33q3 8 9 25q6 16 7 18l2 5t3 10l3 -13v0zM576 368v-352q-1 -20 -14 -34q-14 -13 -34 -14h-480q-20 1 -34 14q-13 14 -14 34v352q1 20 14 34q14 13 34 14h480q20 -1 34 -14q13 -14 14 -34v0zM153 117l63 155h-43l-39 -106l-4 21
l-14 72q-5 14 -19 13h-64l-1 -3q24 -6 42 -17l36 -135h43v0zM247 117l25 155h-40l-25 -155h40v0zM387 167q0 26 -34 43q-22 9 -23 19q0 12 23 13q20 0 30 -6l4 -1l5 33q-12 6 -36 7q-30 0 -48 -14q-19 -14 -19 -38q0 -16 11 -26q12 -10 24 -16q22 -10 21 -19q-1 -8 -8 -12
q-7 -3 -16 -3q-21 0 -38 8l-5 3l-6 -35q16 -8 45 -9q32 1 51 15q18 14 19 38v0zM528 117l-32 155h-31q-15 1 -21 -13l-60 -142h42q0 1 4 10q3 9 4 13h52q1 -5 3 -14q2 -8 2 -9v0h37v0z" />
    <glyph glyph-name="cc-mastercard" unicode="&#xf1f1;" horiz-adv-x="576" 
d="M483 38q-1 -11 -11 -12q-11 1 -12 12q1 10 12 11q10 -1 11 -11v0zM172 49q-11 -1 -11 -11q0 -11 11 -12q10 1 11 12q-1 10 -11 11v0zM290 50q-9 -1 -10 -9h19q-1 9 -9 9v0zM397 49q-10 -1 -10 -11q0 -11 10 -12q11 1 12 12q-1 10 -12 11v0zM503 23v0v0q1 0 1 -1h-1v-1v0
v-1h-1q-1 -1 -1 0v0q-1 -1 -1 0h-1v0l-1 1v1v1q0 1 1 1v0v1h1h1h1v0q1 0 1 -1v0v-1v0zM501 22h1v0v0v1v1v0h-1h-2v-3h1v1v0l1 -1h1l-1 1v0zM576 367v-352q-1 -20 -14 -34q-14 -13 -34 -14h-480q-20 1 -34 14q-13 14 -14 34v352q1 20 14 34q14 13 34 14h480q20 -1 34 -14
q13 -14 14 -34v0zM64 227q1 -58 41 -98v0q39 -39 98 -40q41 0 76 23q-55 48 -54 115q0 68 54 115q-35 23 -76 24q-59 -2 -98 -41q-40 -39 -41 -98v0zM288 119q53 44 53 108v0q0 64 -53 109q-53 -45 -53 -109t53 -108v0zM146 42q-1 14 -15 15q-7 1 -13 -7q-3 7 -12 7
q-6 0 -11 -5v4h-8v-37h8v9q-3 21 9 21q11 0 9 -21v-9h8q-1 5 -1 9q-3 21 10 21q10 1 8 -21v-9h8v23v0zM191 56h-8v-4q-4 5 -12 5q-17 -1 -18 -19q1 -18 18 -20q8 0 12 6v-5h8v37v0zM231 30q-2 12 -15 12v0q-7 0 -8 4q1 4 7 4t12 -3l3 6q-8 5 -19 4q-10 -2 -11 -12
q2 -11 14 -11q8 0 9 -4q-1 -5 -8 -5t-13 4l-3 -6q9 -6 20 -4q11 1 12 11v0zM267 21l-3 7q-3 -2 -7 -2t-5 6v17h13v7h-13v11h-8v-11h-8v-7h8v-17q1 -13 9 -13q9 -1 13 2h1zM280 34h27q-1 24 -17 23q-17 -1 -18 -19q1 -15 12 -19q12 -3 21 5l-3 6q-7 -5 -13 -4q-7 1 -9 8v0z
M339 56q-8 4 -15 -4v4h-9v-37h9v21q0 8 5 9t7 -1l3 8v0zM350 38q0 8 6 11v0q7 2 14 -3l4 7q-10 6 -21 3q-11 -4 -12 -18q1 -15 13 -19q11 -3 20 4l-4 6q-7 -5 -14 -2q-6 2 -6 11v0zM416 56h-8v-4q-7 8 -18 4t-12 -18q1 -15 12 -19q11 -3 18 5v-5h8v37v0zM450 56q-2 1 -7 1v0
q-5 0 -8 -5v4h-8v-37h8v21q0 8 5 9q4 1 8 -1l2 8v0zM490 71h-8v-19q-7 8 -18 4q-10 -4 -12 -18q2 -15 13 -19q11 -3 17 5v-5h8v52v0zM498 146v-5h1v5h2v1h-5v-1h2v0zM504 22v2l-1 1v0q-1 0 -1 1h-1v0h-1h-1q0 -1 -1 -1l-1 -1v-2v0v-1t1 -1q0 -1 1 -1h2h1h1v1h1v1v1v0z
M508 147h-2l-1 -4l-2 4h-1v-5v0v4l2 -4h1l2 4v-4h1v5v0zM512 227q-1 59 -41 98v0q-39 39 -97 41q-42 -1 -77 -23q36 -31 48 -73q13 -43 1 -85t-49 -73q35 -23 77 -23q58 1 97 40q40 40 41 98v0z" />
    <glyph glyph-name="cc-discover" unicode="&#xf1f2;" horiz-adv-x="576" 
d="M520 252q0 12 -15 12h-5v-25h5q15 0 15 13v0zM528 416h-480q-20 -1 -34 -14q-13 -14 -14 -34v-352q1 -20 14 -34q14 -13 34 -14h480q20 1 34 14q13 14 14 34v352q-1 20 -14 34q-14 13 -34 14v0zM484 277h8v0q16 1 30 -2v0q14 -4 15 -22q0 -19 -19 -23l26 -35h-20l-22 33
h-2v-33h-16v82zM428 277h45v-14h-29v-18h28v-14h-28v-22h29v-14h-45v82zM359 277l22 -55l22 55h18l-36 -84h-8l-35 84h17zM303 280q19 0 32 -13v0q13 -13 13 -32t-13 -31q-13 -13 -32 -13t-31 13q-13 12 -13 31t13 32q12 13 31 13v0zM254 274v-19q-16 14 -31 7t-16 -26
q1 -20 16 -26q16 -7 31 7v-19q-23 -10 -43 1q-19 12 -20 37q1 24 20 36t43 2v0zM157 208q10 0 12 8v0q3 9 -15 16q-22 7 -21 23q2 17 18 22t32 -8l-8 -11q-9 8 -17 7q-8 -2 -8 -9q-1 -6 12 -11q26 -8 24 -25q-2 -23 -22 -27t-35 15l10 10q6 -10 18 -10v0zM55 195h-23v82h23
q20 0 32 -12q12 -11 13 -29q0 -15 -11 -27q-11 -13 -34 -14v0zM123 195h-16v82h16v-82zM544 15q-1 -14 -15 -15h-401q96 19 185 53q88 33 150 64q63 31 81 43v-145zM74 256q-7 7 -22 7h-4v-54h4q15 0 22 6q9 9 9 21t-9 20v0z" />
    <glyph glyph-name="cc-amex" unicode="&#xf1f3;" horiz-adv-x="576" 
d="M48 -32q-20 1 -34 14v0q-13 14 -14 34v352q1 20 14 34q14 13 34 14h480q20 -1 34 -14q13 -14 14 -34v-2h-75l-17 -48l-17 48h-98v-64l-28 64h-78l-82 -185h66v-164h204l31 35l32 -35h62v-1q-1 -20 -14 -34q-14 -13 -34 -14h-480v0zM483 84l-43 -46h-49l67 71l-67 73h51
l41 -47l42 47h51l-68 -72l68 -72h-51l-42 46v0zM576 151v-83l-39 42l39 41v0zM308 71h83v-33h-122v143h122v-33h-83v-23h81v-32h-81v-22v0v0zM537 302l-37 -100h-34l-37 100v-100h-38v143h61l32 -89l32 89h60v-143h-39v100v0zM335 230h-66l-12 -28h-43l62 143h51l64 -143
h-44l-12 28v0zM302 309l-20 -46h39l-19 46v0z" />
    <glyph glyph-name="cc-paypal" unicode="&#xf1f4;" horiz-adv-x="576" 
d="M186 190q-1 -20 -22 -22q-15 0 -16 15q2 20 22 22q15 0 16 -15v0zM81 238h-5q-3 0 -3 -2l-5 -27h9q17 -2 21 14q1 10 -4 13t-13 2v0zM365 238h-5q-3 0 -3 -2l-4 -27h8q20 -2 22 18q-1 8 -6 10q-6 2 -13 1h1zM576 368v-352q-1 -20 -14 -34q-14 -13 -34 -14h-480
q-20 1 -34 14q-13 14 -14 34v352q1 20 14 34q14 13 34 14h480q20 -1 34 -14q13 -14 14 -34v0zM128 233q0 15 -10 21v0q-10 7 -24 7h-40q-5 -1 -6 -5l-16 -102q0 -4 3 -4h19q5 1 6 5l4 27q4 7 15 5h3q45 1 46 46v0zM213 224h-19q-5 -2 -5 -8v0q-9 11 -23 10q-19 -1 -31 -14
t-13 -32q2 -30 32 -32q15 1 27 12q-1 -3 -1 -6q0 -4 3 -4h17q4 1 6 6l10 64q0 3 -3 4v0zM253 126l64 92v2q0 3 -3 4h-19q-3 0 -5 -3l-26 -39l-11 38q-2 3 -6 4h-18q-3 -1 -4 -4q1 -1 5 -14q5 -13 9 -27q6 -17 8 -21q-1 0 -1 -1q-4 -5 -11 -16q-8 -11 -9 -15q0 -2 3 -3h19
q3 1 5 3v0zM412 233q0 15 -10 21v0q-10 7 -24 7h-40q-5 -1 -6 -5l-16 -102q0 -4 3 -4h21q3 0 4 3l4 29q4 7 15 5h3q45 1 46 46v0zM497 224h-19q-5 -2 -5 -8v0q-8 11 -23 10q-19 -1 -31 -14t-13 -32q2 -30 32 -32q16 1 27 12q-1 0 -1 -1v-5q-1 -4 3 -4h17q4 1 6 6l10 64
q0 3 -3 4v0zM544 257q0 3 -3 4h-19q-2 -1 -3 -3l-16 -104v-1q0 -3 3 -3h17q4 1 5 6l16 101v0v0zM454 205q-20 -1 -22 -22q1 -14 17 -15q19 2 21 22q-1 15 -16 15v0z" />
    <glyph glyph-name="cc-stripe" unicode="&#xf1f5;" horiz-adv-x="576" 
d="M492 227q-16 1 -18 -23h36q-2 24 -18 23v0zM375 225q-12 -1 -17 -7v-53q5 -6 17 -7q21 2 22 33q-1 31 -22 34v0zM528 416h-480q-20 -1 -34 -14q-13 -14 -14 -34v-352q1 -20 14 -34q14 -13 34 -14h480q20 1 34 14q13 14 14 34v352q-1 20 -14 34q-14 13 -34 14v0zM122 167
q-3 -39 -50 -40q-18 -1 -39 8v34q20 -11 39 -12q13 0 14 9q-2 9 -19 13q-12 4 -23 12t-12 25q2 39 48 40q18 0 35 -6v-34q-17 9 -35 9q-12 1 -12 -7q1 -9 18 -12q12 -4 24 -12q11 -8 12 -27v0zM191 223h-27v-50q1 -15 12 -15q10 0 15 2v-29q-7 -4 -25 -4q-16 0 -26 10
t-11 26v114l35 8v-31h27v-31zM265 221q-4 2 -12 1v0q-8 0 -15 -8v-85h-36v125h31l2 -11q7 11 16 12q10 1 14 -1v0v-33zM309 129h-36v125h36v-125zM309 272l-36 -7v28l36 8v-29zM383 127q-18 1 -25 9v-41l-35 -7v166h31l2 -9q7 9 27 11q20 0 34 -16q14 -17 15 -48
q-1 -33 -15 -49t-34 -16v0zM544 178h-70q5 -23 28 -21q20 0 35 8v-29q-15 -9 -40 -9q-26 0 -42 16t-17 48q1 28 15 46q14 19 40 19q25 0 38 -19q13 -18 13 -46v-13v0z" />
    <glyph glyph-name="lastfm" unicode="&#xf202;" horiz-adv-x="512" 
d="M226 81l-19 51q0 -2 -21 -17q-20 -15 -55 -17q-31 0 -50 25q-19 24 -19 66q1 54 22 76q22 23 50 22q42 0 61 -29q18 -29 32 -80q3 -12 8 -26q12 -43 46 -72q35 -29 109 -30q55 -1 88 18t34 63q-2 49 -33 66q-32 17 -71 23q-5 2 -11 3q-36 8 -33 34q1 31 41 31
q42 1 46 -35l59 7q-10 77 -101 74q-42 1 -72 -18q-31 -18 -33 -66q-2 -59 68 -77q9 -1 16 -3q29 -6 46 -14t18 -28q-1 -32 -61 -31q-44 1 -66 21t-32 53q-4 11 -7 22q-17 64 -47 102q-29 38 -107 39q-65 0 -98 -39q-34 -38 -34 -108q2 -135 128 -137q49 2 74 15q24 14 24 16
v0v0z" />
    <glyph glyph-name="square-lastfm" unicode="&#xf203;" 
d="M400 416h-352q-20 -1 -34 -14q-13 -14 -14 -34v-352q1 -20 14 -34q14 -13 34 -14h352q20 1 34 14q13 14 14 34v352q-1 20 -14 34q-14 13 -34 14v0zM308 103q-47 1 -68 19v0q-21 18 -29 45q-3 8 -5 16q-9 32 -20 50q-12 18 -38 19q-18 0 -31 -14q-14 -14 -14 -48
q0 -26 12 -41q12 -16 31 -16q22 1 34 11q13 9 13 10l12 -32q0 -1 -15 -9q-15 -9 -46 -10q-78 1 -80 86q1 89 83 92q49 -1 67 -24q18 -24 29 -65q2 -6 4 -13q7 -20 20 -33q14 -13 42 -13q37 -1 38 19q-1 13 -12 18t-28 8q-5 1 -10 3q-44 10 -43 48q1 29 21 41q19 11 45 11
q57 1 63 -47l-37 -4q-2 23 -29 22q-25 0 -26 -19q-1 -17 21 -22q3 -1 7 -1q24 -4 44 -15t21 -41q-1 -28 -21 -39q-21 -12 -55 -12v0z" />
    <glyph glyph-name="ioxhost" unicode="&#xf208;" horiz-adv-x="640" 
d="M616 288h-67q-30 68 -90 109q-61 42 -139 43q-69 -1 -125 -34t-89 -89t-34 -125q0 -25 5 -48h-53q-22 -2 -24 -24q2 -22 24 -24h67q30 -68 90 -109q61 -42 139 -43q69 1 125 34t89 89t34 125q0 25 -5 48h53q22 2 24 24q-2 22 -24 24v0zM520 192q-2 -85 -59 -141v0
q-56 -57 -141 -59q-57 1 -103 29t-72 75h279q22 2 24 24q-2 22 -24 24h-298q-6 23 -6 48q2 85 59 141q56 57 141 59q57 -1 103 -29t73 -75h-280q-22 -2 -24 -24q2 -22 24 -24h298q6 -23 6 -48v0zM216 216h208q22 -2 24 -24q-2 -22 -24 -24h-208q-22 2 -24 24q2 22 24 24v0z
" />
    <glyph glyph-name="angellist" unicode="&#xf209;" 
d="M347 233q6 17 17 48v0q11 31 19 62v0q9 30 10 47q-1 20 -12 34t-32 15q-19 -2 -37 -27q-17 -26 -31 -59q-14 -34 -22 -59q-5 -12 -7 -19q-1 3 -3 7q-6 22 -21 61t-34 71q-18 32 -37 34q-24 -1 -35 -15q-11 -15 -11 -37q1 -26 15 -71q15 -44 27 -78q3 -7 5 -13
q-10 4 -20 5q-19 -1 -33 -18q-15 -16 -16 -35q2 -14 8 -28v-2q-53 -15 -51 -71q1 -57 46 -102q45 -44 119 -47q89 2 140 59q50 56 51 144q1 33 -9 59q-11 25 -46 35v0zM312 340q3 12 14 37v0q10 24 23 27q12 -2 11 -16q-1 -10 -10 -39q-9 -30 -20 -60q-11 -31 -16 -46
q-1 -2 -1 -3l-34 6l33 94v0zM142 400q0 7 5 13v0q5 7 15 -4v0q11 -11 27 -56l34 -101q-2 1 -5 1q-20 3 -30 -2q0 1 -1 1q-6 17 -17 46q-10 29 -19 58q-8 28 -9 44v0zM140 204q15 -2 30 -25v0q16 -23 26 -49v0q11 -25 11 -33q-1 -10 -10 -12q-12 1 -30 21q-18 19 -32 42
q-15 23 -15 35q0 6 7 13t13 8v0zM324 18q-44 -49 -109 -49q-45 0 -79 23q-33 23 -50 65q-12 33 -3 51q9 17 23 18q7 -1 19 -16q13 -16 24 -33t12 -24q-3 -8 -12 -9q-9 0 -16 7t-17 22q-8 9 -18 23q-14 -16 -7 -36q8 -20 27 -35q18 -15 38 -16q20 1 31 14t7 28h2h10
q0 -21 9 -40q9 -18 32 -21q1 1 2 5v2q0 13 -5 25q-4 12 -5 25q1 22 13 41q13 19 31 31q12 9 27 13q15 5 27 16q-1 19 -17 21h-6q-18 -1 -45 1q-26 1 -47 10q-21 8 -22 28q-1 6 2 9q3 4 15 4q17 1 45 -2t54 -10q26 -6 39 -17q10 -9 13 -38q2 -30 -7 -67q-10 -37 -37 -69v0z
M226 144q9 -3 20 -5v0q4 0 9 -1q-11 -9 -20 -19q-3 9 -7 19l-2 6v0z" />
    <glyph glyph-name="buysellads" unicode="&#xf20d;" 
d="M224 297l43 -160h-86l43 160v0zM448 368v-352q-1 -20 -14 -34q-14 -13 -34 -14h-352q-20 1 -34 14q-13 14 -14 34v352q1 20 14 34q14 13 34 14h352q20 -1 34 -14q13 -14 14 -34v0zM383 43l-95 298h-128l-95 -298h91l112 91l24 -91h91v0z" />
    <glyph glyph-name="connectdevelop" unicode="&#xf20e;" horiz-adv-x="576" 
d="M551 207l-51 87q2 3 2 7q-1 13 -14 15l-56 96q1 2 1 5q-1 14 -15 15q-7 0 -12 -6h-106q-5 6 -12 6t-12 -6h-106q-4 6 -11 6q-14 -1 -16 -15q0 -3 1 -5l-56 -97q-8 -4 -9 -14v-1q1 0 1 -1l-54 -92q-11 -3 -12 -15q1 -11 12 -15l55 -95q-1 -2 -1 -5q1 -12 12 -15l52 -89
q-1 -3 -1 -6q1 -14 15 -15q7 0 12 5h106q5 -5 12 -5t12 5h107q4 -4 11 -4q14 1 15 15q0 2 -1 4l52 90q11 3 12 15q0 2 -1 5l55 95q11 3 12 15q-1 12 -11 15v0zM154 -3l-44 76h44v-76v0zM154 81h-44q-1 2 -1 3v0l45 48v-51v0zM154 144l-51 -54l-1 1q-1 0 -3 1l-56 96q1 2 1 4
v0v4l52 90q4 0 7 2l51 -52v-92v0zM154 246l-46 47q2 4 2 8v1v0l44 16v-72v0zM154 326l-44 -15l44 75v-60v0zM480 287l1 -1l-35 -167l-64 67l98 102v-1v0zM292 93l11 -12h-22l11 12v0zM291 104l-83 86l80 84l83 -88l-80 -82v0zM297 98l79 82l68 -71l-6 -28h-124l-17 17v0z
M410 404l4 -2l58 -100v-1q0 -4 2 -8l-98 -101l-83 88l117 124v0zM401 406l-113 -121l-57 61l166 60h4v0zM278 406q4 -4 10 -5q6 1 10 5h75l-148 -54l-51 54h104v0zM162 400l1 2q1 1 2 1l51 -54l-54 -20v71v0zM162 321l60 22l60 -63l-79 -85l-41 43v83v0zM162 228l36 -38
l-36 -38v76v0zM162 140l42 45l82 -86l-17 -18h-107v59v0zM169 -22q-3 3 -6 4l-1 1v90h99l-91 -95h-1v0zM298 -22q-4 4 -10 5q-6 -1 -10 -5h-97l92 95h38l92 -95h-105v0zM418 -10l-4 -7q-2 -1 -3 -2l-90 92h115l-18 -83v0zM431 12l13 61h22l-35 -61v0zM466 81h-20l4 21
l17 -18q0 -1 -1 -3v0zM532 189l-55 -97l-4 -2l-21 22l35 164l46 -79q-1 -1 -1 -2v-3v-3v0v0z" />
    <glyph glyph-name="dashcube" unicode="&#xf210;" 
d="M327 344h-217q-39 -1 -64 -28q-26 -27 -27 -66v-229q1 -38 27 -61q25 -23 64 -24h228q39 1 64 24q26 23 27 61v427l-102 -104v0zM154 31q-14 1 -23 10v0q-9 10 -10 23v143q1 14 10 23t23 10h141q13 -1 22 -10t10 -23v-123l51 -53h-224v0z" />
    <glyph glyph-name="forumbee" unicode="&#xf211;" 
d="M6 138q-6 26 -6 52q1 62 30 112q30 51 80 81q51 29 113 30q25 0 49 -6q-93 -36 -162 -105q-69 -70 -104 -164v0zM399 327q-21 27 -48 46q-114 -35 -195 -117q-81 -81 -115 -195q19 -28 45 -49q34 115 116 198t197 117v0zM414 75q24 38 30 83q-60 -33 -108 -82
q-47 -49 -80 -109q46 7 85 32q53 -20 107 -34q-14 56 -34 110v0zM444 220q-4 30 -16 57q-104 -35 -180 -113q-76 -77 -111 -182q27 -11 57 -15q35 86 100 152q64 66 150 101v0z" />
    <glyph glyph-name="leanpub" unicode="&#xf212;" horiz-adv-x="576" 
d="M387 337l15 -249h-11q-56 1 -103 -28q-47 28 -103 28q-33 0 -63 -8q-30 -7 -60 -20l31 258q45 18 92 19q61 0 103 -43q40 42 99 43v0zM569 0q-37 0 -70 16q-52 24 -108 25q-60 0 -103 -41q-43 41 -103 41q-56 -1 -108 -25q-32 -16 -69 -16h-1l42 349q62 34 133 35
q57 2 106 -29q49 31 106 29q71 -1 133 -35l42 -349v0zM526 45l-34 280q-49 21 -101 21q-59 1 -103 -38q-44 39 -103 38q-52 0 -101 -21l-34 -280q35 15 66 24t69 9q56 0 103 -29q47 29 103 29q38 0 69 -9t66 -24v0z" />
    <glyph glyph-name="sellsy" unicode="&#xf213;" horiz-adv-x="640" 
d="M540 211q4 18 4 37q-2 71 -49 119q-48 47 -119 49q-59 -1 -103 -36q-45 -35 -60 -92q-24 20 -55 21q-36 -1 -59 -25q-24 -24 -25 -59q0 -11 3 -23q-33 -15 -51 -45q-19 -30 -20 -66q2 -52 36 -87q35 -35 87 -36h382q52 1 87 36q34 35 36 87q-1 43 -27 76q-25 33 -67 44v0
zM200 46q-2 -13 -15 -15h-31q-14 2 -16 15v111q2 14 16 16h31q13 -2 15 -16v-111v0zM289 46q-1 -13 -15 -15h-31q-14 2 -15 15v132q1 14 15 15h31q14 -1 15 -15v-132v0zM379 46q-2 -13 -15 -15h-31q-14 2 -16 15v163q2 14 16 15h31q13 -1 15 -15v-163v0zM466 46
q-2 -13 -15 -15h-29q-14 2 -15 15v225q1 14 15 16h29q13 -2 15 -16v-225v0z" />
    <glyph glyph-name="shirtsinbulk" unicode="&#xf214;" 
d="M100 38l31 -14l4 10l-31 14zM139 20l31 -13l4 10l-30 13zM312 34l4 -10l31 14l-5 10zM179 3l30 -14l5 10l-30 14zM60 55l31 -13l4 9l-30 14zM272 17l4 -10l31 13l-5 10zM232 -1l5 -10l30 14l-4 10zM351 51l4 -9l31 13l-4 10zM170 401h-33v-10h33v10zM123 401h-34v-10h34
v10zM76 401h-34v-10h34v10zM217 401h-33v-10h33v10zM312 401h-34v-10h34v10zM359 401h-34v-10h34v10zM264 401h-33v-10h33v10zM406 401h-34v-10h34v10zM53 97h-11v-34h11v34zM123 313h-34v-11h34v11zM53 302h23v11h-34v-34h11v23zM222 74q39 1 64 26v0q26 26 27 65
q-1 39 -27 64q-25 26 -64 27q-39 -1 -65 -27q-26 -25 -27 -64q1 -39 27 -65q26 -25 65 -26v0zM174 185q1 18 17 25v0q16 7 32 6q22 -1 40 -10l4 -2l-8 -16h-1q-6 7 -16 10q-11 3 -20 3q-8 0 -18 -3q-11 -3 -12 -12q1 -6 9 -8q7 -1 19 -1q18 1 34 -4q16 -4 17 -25
q-2 -19 -18 -25q-17 -7 -33 -6q-26 -1 -47 12l9 18v0q6 -9 16 -12q11 -3 20 -3q8 0 20 3q12 2 13 12q0 8 -9 10t-22 2q-17 -1 -31 3q-15 5 -15 23v0zM53 270h-11v-34h11v34zM395 63h11v34h-11v-34zM53 140h-11v-33h11v33zM0 444v-406l222 -98l226 98v406h-448zM419 57
l-197 -86l-193 86v270h390v-270v0zM419 356h-390v59h390v-59v0zM53 226h-11v-33h11v33zM53 183h-11v-33h11v33zM170 313h-33v-11h33v11zM395 150h11v33h-11v-33zM395 193h11v33h-11v-33zM217 313h-33v-11h33v11zM395 236h11v33h-11v-33zM395 106h11v34h-11v-34zM264 313h-33
v-11h33v11zM312 313h-34v-11h34v11zM395 279h11v34h-33v-11h22v-23zM359 313h-34v-11h34v11z" />
    <glyph glyph-name="simplybuilt" unicode="&#xf215;" horiz-adv-x="512" 
d="M481 384h-106q-11 0 -19 -8q-7 -7 -7 -18v-40h-186v40q0 11 -8 18q-7 8 -18 8h-106q-24 -2 -27 -26v-332q2 -24 27 -26h450q25 2 27 26v332q-3 24 -27 26v0zM150 92q-28 1 -47 20v0q-19 18 -20 47q1 28 20 47q19 18 47 19q28 -1 47 -19q19 -19 19 -47q0 -29 -19 -47
q-19 -19 -47 -20v0zM362 92q-28 1 -47 20v0q-19 18 -19 47q0 28 19 47q19 18 47 19q28 -1 47 -19q19 -19 20 -47q-1 -29 -20 -47q-19 -19 -47 -20v0z" />
    <glyph glyph-name="skyatlas" unicode="&#xf216;" horiz-adv-x="640" 
d="M640 119q-1 -51 -34 -82v0q-33 -32 -83 -33q-62 2 -104 40q-42 37 -78 86q-35 48 -77 85q-41 37 -101 39q-55 -2 -83 -33q-27 -32 -27 -73q1 -42 29 -73q29 -32 86 -33q33 0 66 12q33 11 60 30q2 2 6 5q9 10 17 12q9 -1 10 -11q0 -6 -6 -13q-6 -6 -12 -11v0
q-32 -28 -73 -44q-40 -17 -82 -18q-64 1 -108 41q-44 39 -46 104q2 66 44 107q43 41 109 42q73 -2 122 -43q48 -41 87 -93q33 -44 69 -76t84 -34q49 3 65 37q16 33 0 67t-62 36q-15 -1 -28 -6q-11 -5 -19 -5q-14 1 -16 15q1 9 3 18t3 19q-2 50 -34 82q-33 31 -83 32
q-29 -1 -47 -10q-19 -10 -30 -19q-8 -7 -12 -8q-10 1 -11 12q1 8 7 14q20 22 47 33t56 11q61 -2 100 -40q38 -37 39 -98q0 -10 -1 -21q18 5 36 5q47 -1 79 -30q32 -30 33 -77v0z" />
    <glyph glyph-name="pinterest-p" unicode="&#xf231;" horiz-adv-x="384" 
d="M204 441q-80 0 -140 -48v0q-61 -47 -64 -131q2 -53 23 -81q21 -29 41 -29q7 1 11 15q4 13 4 20q0 5 -6 13q-6 9 -11 22q-6 14 -7 33q2 62 41 99q39 38 100 39q52 -1 85 -29q32 -28 33 -81q1 -28 -8 -63q-8 -36 -28 -62q-20 -27 -54 -28q-19 0 -32 12q-14 12 -14 32
q2 28 13 56q12 28 13 57q-1 33 -24 41q-23 7 -45 -10q-23 -16 -25 -57q0 -26 10 -50q-5 -22 -12 -48q-11 -41 -20 -83q-9 -43 -10 -78q0 -21 3 -42q1 -7 1 -15q1 -1 2 -1q1 -3 5 0q32 42 43 69t21 72q3 14 8 32q10 -18 30 -27q19 -9 39 -9q53 1 87 30t51 74q16 45 16 92
q-2 76 -55 120q-52 44 -125 44v0z" />
    <glyph glyph-name="whatsapp" unicode="&#xf232;" 
d="M381 351q-66 64 -157 65q-62 -1 -112 -30q-50 -30 -80 -80q-29 -50 -30 -112q0 -60 29 -111l-31 -115l118 31q49 -27 106 -27v0q62 1 112 30q51 30 81 80t31 112q0 45 -18 85q-17 40 -49 72v0zM224 9q-51 1 -94 26l-7 4l-70 -18l19 68l-4 7q-28 45 -29 98q2 78 55 130
q52 53 130 54q76 0 130 -54q55 -54 57 -130q-3 -78 -56 -131q-53 -52 -131 -54v0zM325 147q-5 3 -19 10v0q-14 6 -19 8q-7 5 -12 -2q-4 -5 -9 -12q-6 -7 -9 -10q-4 -6 -12 -1q-24 11 -42 25t-33 41q-4 6 3 12q5 4 13 18q2 5 -1 10q-1 1 -4 10q-3 8 -7 18q-4 8 -6 13
q-6 12 -11 9h-1h-11q-6 1 -15 -6q0 -1 -1 -2q-5 -4 -11 -15t-7 -30q1 -20 10 -37q9 -16 12 -20h1q0 -1 1 -2q5 -9 30 -36q24 -27 63 -46q26 -11 40 -14q15 -2 27 0q9 2 21 9t16 17q7 22 4 27q-2 3 -8 5q-2 1 -3 1v0z" />
    <glyph glyph-name="viacoin" unicode="&#xf237;" horiz-adv-x="384" 
d="M384 416h-64l-81 -192h-94l-81 192h-64l48 -112h-48v-48h69l13 -32h-82v-48h103l89 -208l89 208h103v48h-82l14 32h68v48h-48l48 112v0zM192 112l-27 64h54l-27 -64v0z" />
    <glyph glyph-name="medium" unicode="&#xf3c7;" horiz-adv-x="640" 
d="M181 374q-77 -2 -128 -53v0q-51 -52 -53 -129q2 -77 53 -129q51 -51 128 -53q76 2 127 53q51 52 53 129q-2 77 -53 129q-51 51 -127 53v0zM469 363q-39 -2 -64 -50v0q-26 -48 -26 -121t26 -121q25 -48 64 -50q38 2 64 50q25 48 26 121v0q-1 73 -26 121q-26 48 -64 50v0z
M608 345q-13 -1 -22 -45v0q-9 -43 -9 -108t9 -108q9 -44 22 -45q14 1 23 45q9 43 9 108t-9 108q-9 44 -23 45v0z" />
    <glyph glyph-name="medium" unicode="&#xf23a;" horiz-adv-x="640" 
d="M181 374q-77 -2 -128 -53v0q-51 -52 -53 -129q2 -77 53 -129q51 -51 128 -53q76 2 127 53q51 52 53 129q-2 77 -53 129q-51 51 -127 53v0zM469 363q-39 -2 -64 -50v0q-26 -48 -26 -121t26 -121q25 -48 64 -50q38 2 64 50q25 48 26 121v0q-1 73 -26 121q-26 48 -64 50v0z
M608 345q-13 -1 -22 -45v0q-9 -43 -9 -108t9 -108q9 -44 22 -45q14 1 23 45q9 43 9 108t-9 108q-9 44 -23 45v0z" />
    <glyph glyph-name="y-combinator" unicode="&#xf23b;" 
d="M448 416v-448h-448v448h448v0zM236 160l78 146h-33l-46 -91q-7 -14 -13 -27l-12 27l-45 91h-35l77 -144v-94h29v92v0z" />
    <glyph glyph-name="optin-monster" unicode="&#xf23c;" horiz-adv-x="576" 
d="M573 27q9 15 -6 11q-5 8 -11 14q4 16 -11 9q-7 5 -16 9q0 11 -6 11t-11 -5q-15 3 -27 -6v20q11 0 26 9t20 27q3 10 0 22q-7 20 -25 26q-3 11 -15 16q-11 0 -14 -10q-16 0 -21 -9q-4 0 -8 1q-5 1 -9 1q4 3 8 5q9 12 26 11v3q15 0 30 5q15 4 24 13q9 11 12 26q2 15 0 29
t-7 27q-6 13 -17 21q-7 5 -14 2q-8 -3 -9 -11q0 -3 -1 -6q0 -12 -6 -17t-32 -2q-15 36 -42 60q-54 43 -120 47t-125 -10q6 -1 11 -2q26 -5 49 -14q-40 -5 -76 -23q-22 -12 -33 -21q-12 -10 -20 -18l-4 -4q4 1 7 1q19 4 37 3q-14 -8 -26 -20q-17 -1 -21 4q-5 4 -5 17
q0 2 -1 5q-1 8 -8 11q-8 3 -14 -1q-22 -18 -25 -51t12 -53q9 -9 24 -13q16 -4 31 -5v-2q17 0 25 -12q4 -2 8 -5q-4 0 -8 -1q-5 0 -9 -1q-7 10 -21 9q-2 10 -14 10q-12 -5 -15 -16q-33 -15 -25 -48q5 -18 20 -27t26 -9v-20q-9 8 -27 6q-5 5 -11 5q-6 1 -6 -11q-9 -4 -16 -9
q-15 8 -11 -9q-6 -6 -11 -14q-15 4 -6 -11q-1 -5 -2 -11q2 -25 26 -44t48 -21q28 0 43 23q170 -6 340 0q15 -23 43 -23q24 2 48 21t25 44q0 5 -1 11v0zM499 281q2 5 2 14q2 10 14 1q9 -10 12 -26t2 -25q-5 23 -30 36v0zM494 274q15 -5 22 -19v0q7 -14 8 -30q-2 -4 -5 -8
q-9 -8 -26 -12q3 17 0 34t-13 29q8 1 14 6v0zM470 267q11 -9 15 -27v0q3 -18 -1 -36q-6 -1 -11 -1q-3 33 -15 64h12v0v0zM48 245q-1 9 2 25v0q3 16 11 26q13 10 14 -1q1 -9 3 -14q-25 -13 -30 -36v0zM57 217q-3 4 -5 8q1 16 8 30q8 14 22 19q6 -5 14 -6q-10 -12 -13 -29
t0 -34q-17 3 -26 12v0zM105 203q-6 0 -13 1q-6 29 6 53v-1l12 5q0 1 1 1q7 3 14 4q-16 -30 -20 -63v0zM289 365q32 0 54 -22v0q21 -21 22 -53q-1 -33 -22 -54q-22 -22 -54 -23q-32 1 -54 23q-21 21 -22 54q1 32 22 53q22 22 54 22v0zM405 191q0 -14 -6 -32v0q-5 -18 -17 -25
q-10 -7 -11 16q-1 14 -6 42h11q15 0 29 -1v0zM351 193q1 -6 1 -22v0q1 -17 -3 -20q-10 -3 -26 -3t-25 4q-3 4 -4 20q-1 15 0 21v0h57v0zM278 139q-10 -3 -27 -3v0q-17 0 -27 5q-5 4 -4 23q0 19 2 28q18 1 36 1h22v0q1 -9 1 -29q1 -21 -3 -25v0zM172 190q18 1 37 2
q-2 -13 -3 -29t-2 -24q-2 -9 -10 -4q-16 8 -21 24t-1 31v0zM136 159q12 1 23 2v0q1 0 1 1q2 -10 7 -18q9 -14 26 -21q16 -6 19 14q6 -11 24 -12q19 -1 31 1h2q21 -1 25 14q21 -5 44 -3q1 1 3 1q15 -1 21 8q1 -1 1 -3q1 -7 4 -13q9 -16 24 -5q15 10 23 36q6 0 12 -1l14 -2v0
q-1 -2 0 -5q0 -3 7 -6q-35 -36 -74 -64t-89 -43q-47 16 -85 43q-38 28 -71 63q13 6 8 13v0zM115 -14q-4 -13 -15 -21v0q-11 -8 -25 -8q-15 1 -32 12q-17 10 -27 25q0 24 24 41q23 17 42 14q11 -5 20 -20q9 -16 14 -34q0 -5 -1 -9v0zM106 52q-1 21 0 41v0q4 2 8 6q11 3 15 10
q2 5 -3 7q-3 2 -2 5h1l6 3q42 -45 98 -77q-56 -17 -106 -47q-3 28 -17 52v0zM444 -12q-155 -6 -310 0v-1v1v0q53 33 113 50q17 -7 35 -13q2 -1 4 0q21 6 42 16q61 -20 116 -53v0zM454 0q-53 30 -112 48q57 31 104 76q3 -2 7 -3q1 -1 1 -2q-8 -4 -6 -10q4 -7 15 -9q4 -5 8 -7
q0 -21 -1 -41h1q-15 -27 -17 -52v0zM560 -6q-10 -15 -27 -25v0q-17 -11 -32 -12q-15 0 -28 10q-12 9 -13 27q5 19 14 34q9 16 20 20q19 4 43 -13q23 -17 23 -41v0zM373 373q-4 36 -29 50v0q-25 15 -54 8v0q-29 -7 -43 -35q70 36 126 -23v0zM75 41q-14 -2 -31 -16v0
q-17 -13 -19 -27q1 -9 10 -14q10 -4 23 -1q9 3 20 11t15 16q5 10 -1 21q-6 10 -17 10v0zM291 217q22 1 36 14v0q15 14 16 34q-2 28 -25 41q-22 13 -48 4q16 -6 17 -22q-2 -18 -18 -22q-17 -4 -29 11q-4 -26 11 -43q16 -16 40 -17v0zM68 -26q1 -5 7 -8v0q7 -4 15 -2
q11 6 17 17q2 5 -1 12q-2 7 -9 6q-8 -2 -18 -10t-11 -15v0zM501 41q-11 0 -17 -10v0q-6 -11 -2 -21q5 -8 16 -16t21 -11q12 -3 22 1q9 5 10 14q-2 14 -19 27q-17 14 -31 16v0zM479 -1q-7 1 -9 -6v0q-3 -6 -1 -12q5 -11 18 -17q7 -2 14 2q6 3 7 8q0 7 -11 15q-10 8 -18 10v0z
" />
    <glyph glyph-name="opencart" unicode="&#xf23d;" horiz-adv-x="640" 
d="M423 7q0 -19 -13 -32v0q-13 -13 -32 -13q-20 0 -33 13t-13 32q0 20 13 33t33 13q19 0 32 -13t13 -33v0zM169 53q-19 0 -32 -13v0q-13 -13 -13 -33q0 -19 13 -32t32 -13q20 0 33 13t13 32q0 20 -13 33t-33 13v0zM461 323q-149 0 -236 7v0q-86 7 -136 28v0q-50 22 -89 64
q5 -8 11 -17q13 -28 44 -58q30 -30 104 -50q73 -20 214 -19q121 2 159 -12q38 -15 24 -41t-49 -60q-37 -35 -63 -76q42 38 79 69q71 58 102 95q31 36 -3 53q-35 17 -161 17v0z" />
    <glyph glyph-name="expeditedssl" unicode="&#xf23e;" horiz-adv-x="496" 
d="M248 405q-90 -3 -150 -63v0q-60 -60 -63 -150q3 -90 63 -150t150 -63q90 3 150 63t63 150q-3 90 -63 150t-150 63v0zM151 272q1 41 28 69v0q28 27 69 28q41 -1 69 -28q27 -28 28 -69v-27q0 -8 -8 -9h-18q-8 1 -9 9v27q-2 41 -32 54q-30 14 -60 0q-30 -13 -32 -54v-27
q-1 -8 -9 -9h-18q-8 1 -9 9v27h1zM390 68q-2 -16 -18 -18h-248q-16 2 -18 18v142q2 16 18 17h248q16 -1 18 -17v-142v0zM142 205v-133q-1 -4 -5 -4h-9q-4 0 -4 4v133q0 4 4 5h9q4 -1 5 -5v0zM283 157q-1 -21 -17 -31v-31q-1 -9 -9 -9h-18q-8 0 -9 9v31q-17 10 -17 31
q0 15 10 25t25 10t25 -10t10 -25v0zM248 440q-69 -1 -125 -34v0q-56 -33 -89 -89v0q-33 -56 -34 -125q1 -69 34 -125t89 -89t125 -34q69 1 125 34t89 89t34 125q-1 69 -34 125t-89 89t-125 34v0zM248 -38q-64 0 -116 31v0q-52 31 -83 83v0q-31 52 -31 116t31 116t83 83
t116 31t116 -31t83 -83t31 -116t-31 -116t-83 -83t-116 -31v0z" />
    <glyph glyph-name="cc-jcb" unicode="&#xf24b;" horiz-adv-x="576" 
d="M432 204v32h34t4 0v0q12 -3 13 -16q-1 -14 -13 -16h-4h-17h-17v0zM474 183q-1 1 -4 1v0h-18v0h-20v-35h20h18h4q13 3 14 17q-1 14 -14 17v0zM576 368v-352q-1 -20 -14 -34q-14 -13 -34 -14h-480q-20 1 -34 14q-13 14 -14 34v352q1 20 14 34q14 13 34 14h480q20 -1 34 -14
q13 -14 14 -34v0zM182 256h-57q0 -17 1 -32q2 -37 -4 -57q-5 -21 -33 -21q-29 1 -57 15v-28q24 -6 45 -7q22 -2 23 -2v0q61 1 74 27q12 25 9 74q-1 14 -1 31v0zM361 251q-33 9 -71 8v0q-38 0 -66 -15v0q-27 -16 -28 -52q1 -38 30 -53q28 -15 66 -14q39 0 69 8v28
q-38 -19 -72 -14q-34 6 -36 45q2 39 36 45q33 5 72 -14v28v0zM544 161q-3 29 -38 32v1q30 6 30 30q-2 29 -37 31q2 1 -3 1h-30h-87v-128h123q18 0 30 9t12 24v0z" />
    <glyph glyph-name="cc-diners-club" unicode="&#xf24c;" horiz-adv-x="576" 
d="M240 368q-75 -2 -125 -51v0q-49 -50 -51 -125q2 -74 51 -124q50 -50 125 -52q74 2 124 52t52 124q-2 75 -52 125q-50 49 -124 51v0zM200 88q-32 13 -52 41v0q-19 27 -20 63q1 36 20 64q20 28 52 40v-208v0zM280 88v208q31 -12 51 -40q19 -28 20 -64q-1 -36 -20 -63
q-20 -28 -51 -41v0zM528 416h-480q-20 -1 -34 -14q-13 -14 -14 -34v-352q1 -20 14 -34q14 -13 34 -14h480q20 1 34 14q13 14 14 34v352q-1 20 -14 34q-14 13 -34 14v0zM330 0h-91q-81 2 -136 56t-57 134q2 88 57 140q55 53 136 54h91q81 -1 139 -54q59 -52 61 -140
q0 -53 -28 -96t-74 -68q-45 -25 -98 -26v0z" />
    <glyph glyph-name="creative-commons" unicode="&#xf25e;" horiz-adv-x="496" 
d="M246 233l-33 -17q-8 14 -17 17t-11 3q-33 0 -33 -44q0 -18 8 -31q7 -12 25 -13q22 0 31 21l30 -15q-4 -10 -20 -24q-15 -14 -45 -15q-19 -2 -45 13t-29 64q2 43 25 60q24 18 48 17q46 0 66 -36v0zM389 233l-33 -17q-8 14 -17 17t-11 3q-33 0 -33 -44q0 -18 8 -31
q7 -12 25 -13q22 0 31 21l31 -15v0q-2 -5 -17 -21q-16 -16 -48 -18q-20 -2 -46 13t-28 64q1 43 25 60q23 18 47 17q46 0 66 -36v0zM248 440q-72 -1 -128 -35v0q-56 -34 -88 -90v0q-31 -56 -32 -123q1 -70 34 -126q34 -56 90 -89q56 -32 124 -33q66 0 122 32q56 31 90 86
q35 56 36 130q-1 70 -33 126q-32 55 -88 88t-127 34v0zM248 -11q-86 3 -144 60v0q-57 58 -59 143q1 82 57 141t146 62q87 -2 144 -59t59 -144q-3 -93 -62 -147q-60 -55 -141 -56v0z" />
    <glyph glyph-name="gg" unicode="&#xf260;" horiz-adv-x="512" 
d="M179 218l103 -103l-103 -102l-179 179l179 179l45 -45l-26 -25l-19 19l-128 -128l128 -128l52 51l-77 77l25 26v0zM333 371l-103 -102l103 -103l25 26l-77 76l52 52l128 -128l-128 -128l-19 19l-26 -25l45 -45l179 179l-179 179v0z" />
    <glyph glyph-name="gg-circle" unicode="&#xf261;" horiz-adv-x="512" 
d="M257 440q-69 -1 -125 -34v0q-56 -33 -89 -89v0q-33 -56 -34 -125q1 -69 34 -125t89 -89t125 -34q69 1 125 34t89 89t34 125q-1 69 -34 125t-89 89t-125 34v0zM208 65l-126 126l126 126l35 -36l-24 -24l-12 11l-77 -77l77 -77l27 26l-53 53l24 25l78 -78l-75 -75v0z
M307 67l-36 36l24 24l12 -11l77 77l-77 77l-27 -26l53 -53l-24 -24l-77 77l75 75l125 -126l-125 -126v0z" />
    <glyph glyph-name="odnoklassniki" unicode="&#xf263;" horiz-adv-x="320" 
d="M275 114q-21 -13 -46 -19v0q-25 -6 -44 -8l21 -21l76 -76q13 -15 7 -30q-6 -16 -22 -22q-15 -6 -30 6l-77 77v0l-76 -76q-15 -13 -31 -7q-15 6 -21 22q-7 15 7 30q9 9 19 20l57 57l21 20q-20 2 -45 8t-46 19q-25 15 -34 28q-10 13 0 31q5 12 20 16q14 5 34 -10
q1 -2 26 -15q25 -12 69 -14q44 2 70 14q25 13 25 15q20 15 35 10q14 -4 20 -16q9 -18 -1 -31q-9 -13 -34 -28v0zM30 318q2 55 38 92v0q37 37 92 38q55 -1 92 -38q36 -37 38 -92q-2 -55 -38 -91q-37 -37 -92 -38q-55 1 -92 38q-36 36 -38 91v0zM96 318q1 -27 19 -45v0
q18 -18 45 -18t45 18t19 45q-1 28 -19 46t-45 18t-45 -18t-19 -46v0z" />
    <glyph glyph-name="square-odnoklassniki" unicode="&#xf264;" 
d="M184 271q1 17 12 28v0q11 11 28 12q17 -1 28 -12t12 -28q-1 -17 -12 -28t-28 -12q-17 1 -28 12t-12 28v0zM448 368v-352q-1 -20 -14 -34q-14 -13 -34 -14h-352q-20 1 -34 14q-13 14 -14 34v352q1 20 14 34q14 13 34 14h352q20 -1 34 -14q13 -14 14 -34v0zM143 271
q1 -34 24 -57v0q23 -23 57 -24q34 1 57 24t24 57q-1 34 -24 57t-57 24q-34 -1 -57 -24t-24 -57v0zM317 180q-3 8 -12 10v0q-9 3 -22 -6q0 -1 -16 -9q-15 -8 -43 -9q-28 1 -43 9q-16 8 -16 9v0q-13 9 -22 6q-9 -2 -12 -10q-6 -11 0 -19t21 -18q13 -8 29 -12t28 -5l-13 -12
l-36 -36q-6 -7 -12 -12q-11 -15 1 -28q12 -12 27 -1l48 48v0q29 -28 48 -48q15 -11 27 1q13 13 1 28l-47 48l-13 12q12 1 27 5q16 4 29 12q15 10 21 18t0 19v0z" />
    <glyph glyph-name="get-pocket" unicode="&#xf265;" 
d="M408 384h-367q-17 0 -29 -12t-12 -29v-135q1 -63 30 -113q30 -51 81 -81q50 -29 113 -30q63 1 113 30q51 30 81 81q29 50 30 113v135q0 18 -12 29q-11 12 -28 12v0zM246 115q-10 -8 -22 -8v0q-12 0 -21 8q-36 35 -58 56q-40 38 -49 48q-9 11 -8 20q1 13 9 21q9 9 22 9
q8 2 18 -6q10 -7 40 -37q18 -18 47 -46q28 27 46 44q32 32 42 39q9 8 18 6q13 0 21 -9q9 -8 9 -21q2 -9 -7 -20q-10 -11 -49 -48q-23 -21 -58 -56v0z" />
    <glyph glyph-name="wikipedia-w" unicode="&#xf266;" horiz-adv-x="640" 
d="M640 397v-12q-41 -3 -56 -41q-9 -20 -25 -57q-27 -64 -63 -147t-67 -154h-14l-82 193q-18 -35 -37 -71q-32 -62 -62 -122q-1 -1 -8 0h-7q-35 82 -71 163q-37 83 -72 166q-10 22 -32 45q-23 23 -44 24v6v8h162v-13q-16 -1 -33 -10q-16 -9 -11 -25q7 -14 19 -41
q11 -27 26 -60q24 -56 47 -110q23 -53 34 -77q7 14 20 37q12 23 25 49q19 35 30 57q-9 20 -29 65q-13 29 -25 56l-18 39q-8 12 -25 16q-16 4 -31 3v14h142v-13q-15 -1 -25 -7t-4 -19q13 -29 24 -52q11 -25 24 -53q5 10 21 43q16 32 27 58q13 29 -39 29q1 3 1 7v7h65h37h21
v-13q-37 -2 -58 -32l-59 -123q3 -9 17 -40t29 -64q8 -19 15 -34q6 -14 8 -18l122 282q-7 17 -23 23q-15 6 -24 5v14l128 -1v0v0z" />
    <glyph glyph-name="safari" unicode="&#xf267;" horiz-adv-x="512" 
d="M275 173l-38 38l-71 -109zM256 440q-69 -1 -125 -34v0q-56 -33 -89 -89v0q-33 -56 -34 -125q1 -69 34 -125t89 -89t125 -34q69 1 125 34t89 89t34 125q-1 69 -34 125t-89 89t-125 34v0zM412 265l15 6q3 2 6 0q3 -1 4 -4v0q1 -3 0 -6t-4 -4l-15 -7q-7 -2 -10 5v0
q-3 7 4 10v0zM314 354l7 15q3 6 10 4v0q6 -3 4 -10l-6 -15q-3 -7 -10 -4v0q-3 1 -5 4q-1 3 0 6v0zM256 388v0q7 -1 8 -8v-16q-1 -7 -8 -8v0q-7 1 -8 8v16q1 7 8 8v0zM181 373q3 1 6 0t4 -4l7 -15q1 -4 -1 -8q-3 -4 -8 -3q-4 1 -6 5l-6 15q-2 7 4 10v0zM117 331v0q6 4 12 0
l11 -12q5 -5 0 -11v0q-6 -5 -11 0l-12 11q-4 6 0 12v0zM60 192v0q1 7 8 8h16q7 -1 8 -8v0q-1 -7 -8 -8h-16q-7 1 -8 8v0zM100 119l-15 -6q-3 -2 -6 0q-3 1 -4 4v0q-1 3 0 6t4 4l15 7q7 2 10 -5v0q3 -7 -4 -10v0zM104 255v0q-1 -3 -4 -5q-3 -1 -6 0l-15 7q-6 3 -4 10v0
q3 6 10 4l15 -6q7 -3 4 -10v0zM198 30l-7 -15q-3 -6 -10 -4q-7 3 -4 10l6 15q2 4 6 5q5 1 8 -3q2 -4 1 -8v0zM264 4q-1 -7 -8 -8v0q-7 1 -8 8v16q1 7 8 8v0q7 -1 8 -8v-16zM331 11v0q-3 -1 -6 0t-4 4l-7 15q-2 7 5 10v0q7 3 10 -4l6 -15q2 -7 -4 -10v0zM395 53v0
q-6 -4 -12 0l-11 12q-5 5 0 11v0q6 5 11 0l12 -11q4 -6 0 -12v0zM286 162l-176 -116l116 176l176 116zM437 117v0q-3 -6 -10 -4l-15 6q-7 3 -4 10v0q1 3 4 5q3 1 6 0l15 -7q6 -3 4 -10v0zM444 184h-16q-7 1 -8 8v0q1 7 8 8h16q7 -1 8 -8v0q-1 -7 -8 -8v0z" />
    <glyph glyph-name="chrome" unicode="&#xf268;" horiz-adv-x="512" 
d="M0 192q1 71 34 129l110 -191q17 -30 46 -48t66 -18q21 0 41 7l-76 -133q-96 15 -157 85q-62 70 -64 169v0zM365 126q19 30 19 66q-2 59 -43 96h152q19 -45 19 -96q-1 -71 -35 -129t-92 -92q-57 -34 -129 -35l109 190v0zM478 320h-222q-48 -1 -82 -29q-34 -29 -43 -74
l-77 133q36 45 88 71t114 27q72 -1 130 -35q58 -35 92 -93v0v0zM168 192q1 37 26 62v0q25 25 62 26q37 -1 62 -26t26 -62q-1 -37 -26 -62t-62 -26q-37 1 -62 26t-26 62v0z" />
    <glyph glyph-name="firefox" unicode="&#xf269;" horiz-adv-x="512" 
d="M504 207q-1 2 -1 4v0v5v0q-2 21 -7 41l-1 1l-1 4v0v0v2q-1 1 -1 2v0v1q-1 2 -1 3v1h-1q0 2 -1 4v1q0 1 -1 1v2l-1 1v2l-1 1v1v0q-1 1 -1 2t-1 2v0v0q-2 6 -5 12v0q0 1 -1 1q0 1 -1 2v1v0q-1 1 -1 2l-1 1v1l-1 1q0 1 -1 2v1q-1 0 -1 1t-1 2t-1 2l-1 1v1l-1 1l-1 1v1l-1 1
v0q-1 1 -1 2q-1 1 -1 2l-2 2q0 1 -1 2l-1 1q0 1 -1 1v1l-1 1l-1 2q-1 0 -1 1v0l-2 2q0 1 -1 2q-11 14 -24 27q-8 9 -18 17q-6 5 -12 9q-12 9 -25 15q-4 2 -7 4v0q-27 13 -56 20h-3q-1 1 -2 1v0h-2h-1q-19 4 -38 4h-11q-23 0 -45 -5q-52 -11 -83 -39q-1 0 -2 -1l-1 -1v0v0v0
v0v0v0v0v0q25 14 50 19l6 2v0h1t2 1h3v0h1q49 9 96 -5q47 -13 84 -48q15 -14 27 -32q22 -38 22 -79q0 -40 -18 -69q-28 -41 -75 -50q-46 -9 -84 25q-25 25 -26 59q0 16 6 31q2 4 8 14t11 11q-11 2 -26 -4q-16 -6 -29 -24q-11 -18 -12 -41q0 -23 7 -43q-9 19 -12 40
q-7 63 23 109q31 47 71 61q-22 18 -65 16q-42 -3 -83 -31q-45 -34 -62 -91q2 34 26 84q-14 -7 -28 -25t-22 -38q-24 -58 -16 -124v-5q1 -3 1 -5q17 -90 84 -147q67 -58 161 -59q69 0 125 33q56 34 89 90t34 125v0v14v0z" />
    <glyph glyph-name="opera" unicode="&#xf26a;" horiz-adv-x="496" 
d="M314 415q-86 -3 -137 -63v0q-52 -60 -57 -141v0q-5 -82 46 -151q28 -34 66 -55q37 -20 82 -20q55 0 99 30q-68 -61 -165 -63h-12q-66 4 -120 38q-53 33 -84 88t-32 122q1 69 34 125t89 89t125 34h1q97 -3 164 -63q-44 30 -99 30v0zM416 18q-32 -19 -66 -18v0
q-35 1 -66 23q43 17 70 65q27 47 27 112t-27 112q-27 48 -70 65q32 21 66 23q35 1 67 -18q53 -51 70 -117q18 -66 0 -131q-18 -66 -71 -116v0z" />
    <glyph glyph-name="internet-explorer" unicode="&#xf26b;" horiz-adv-x="512" 
d="M483 288q9 19 15 43v0q6 24 6 45q0 56 -56 69q-55 13 -153 -30q-83 3 -149 -48q-67 -52 -88 -139q23 28 56 57q32 29 66 44q-83 -75 -136 -173q-16 -29 -30 -69q-13 -40 -14 -76q1 -48 27 -64q27 -16 68 -9q41 8 85 31q24 -11 50 -13q25 -3 52 -2q74 0 133 38
q58 38 84 108h-121q-29 -44 -74 -50q-46 -5 -84 21q-37 25 -39 76h329q5 33 -2 70q-6 37 -25 71v0zM65 101q13 -39 39 -70v0q26 -32 61 -53q-46 -25 -82 -24q-36 2 -45 37t27 110v0zM181 210q2 42 32 68v0q30 26 72 27q41 -1 71 -27t32 -68h-207v0zM365 398q16 8 35 14v0
q19 7 38 8q24 -1 39 -15q14 -15 15 -39q0 -16 -5 -34q-4 -19 -10 -34q-20 32 -48 59q-29 27 -64 41v0z" />
    <glyph glyph-name="contao" unicode="&#xf26d;" horiz-adv-x="512" 
d="M45 143q1 -4 2 -7v0q9 -49 23 -92v0q14 -42 44 -76h-80q-14 0 -24 10t-10 24v380q0 14 10 24t24 10h58q-21 -19 -37 -44q-31 -50 -29 -106q3 -55 18 -115q1 -4 1 -8v0zM478 416h-90q32 -32 53 -84l-138 -29q-10 22 -30 36q-19 14 -52 8q-37 -10 -49 -35q-7 -12 -7 -40
q0 -27 16 -100q15 -73 26 -99q12 -25 23 -33q20 -18 58 -11q33 7 45 28q12 20 13 45l137 30q3 -107 -57 -164h52q14 0 24 10q10 9 10 24v380q0 14 -10 24t-24 10v0z" />
    <glyph glyph-name="500px" unicode="&#xf26e;" 
d="M103 104q-5 10 -4 15v0q1 5 12 8q10 3 13 1t6 -10q2 -13 24 -40v0v93q2 39 29 65q28 27 69 28q41 -1 69 -29q28 -27 29 -68q-2 -49 -39 -78t-90 -15q-7 4 -4 17q4 12 13 11q40 -1 64 12t25 53q-1 30 -21 48q-21 18 -48 18t-48 -22q-14 -14 -16 -34q-3 -20 -2 -67
q0 -23 1 -56q39 -23 83 -18q44 6 77 38q38 39 38 93t-38 93q-39 38 -94 38t-93 -38l-9 -9q-8 -9 -12 -15l-1 -1v0q-2 -8 -20 -6q-12 3 -14 12v187q0 9 10 10h242q5 0 7 -6q1 -5 1 -9v0q0 -3 -1 -9q-2 -5 -7 -6h-224v-133h1q54 54 119 53t113 -44q48 -44 50 -118
q-1 -67 -39 -107q-37 -40 -91 -50t-104 13t-76 82v0zM167 364q-1 -4 3 -13v0q4 -9 11 -7q53 19 94 13q40 -6 68 -22q27 -15 39 -26q7 -5 9 -6q4 1 12 9q7 8 2 14q-48 44 -102 54t-94 3q-39 -8 -42 -19v0zM393 33q-57 -54 -128 -58v0q-70 -4 -128 38v0q-57 42 -76 124
q-2 9 -15 7q-13 -1 -14 -10q15 -88 80 -138q64 -51 148 -50q83 0 154 67q4 7 -5 16t-16 4v0zM214 141q1 -5 4 -7v0l1 -1q5 -5 9 -5v0q2 0 5 3l17 17l9 -9l9 -9q3 -2 4 -2q5 1 11 7q5 5 0 12l-17 17l18 18q3 6 -4 13t-12 3l-18 -18l-10 10q-6 7 -8 8q-2 2 -4 1q-4 0 -10 -6
t-2 -11l18 -18q-6 -6 -10 -9q-12 -12 -10 -14v0z" />
    <glyph glyph-name="amazon" unicode="&#xf270;" 
d="M257 285q-26 0 -65 -8v0q-40 -9 -71 -34v0q-32 -25 -33 -75q2 -55 37 -76q36 -21 79 -12q42 9 67 45q6 -9 22 -24q15 -15 24 -23l56 56q-2 1 -16 16t-16 37v147q1 21 -23 50q-25 29 -89 32q-66 -2 -101 -34q-34 -31 -34 -70l74 -7q14 35 33 43t21 6q26 0 31 -16
q6 -15 4 -41v-12v0zM257 198q-1 -39 -22 -51v0q-20 -12 -40 -2v0q-20 10 -22 36q2 35 29 46q28 12 55 12v-41v0zM393 35q-6 -11 -51 -37v0q-45 -27 -123 -30q-53 1 -95 20q-43 18 -72 42q-30 23 -42 39q-5 6 -2 8t7 0l4 -2q37 -24 88 -46t121 -23q69 0 160 41q14 4 5 -12v0z
M433 33q-12 -24 -21 -31q-10 -7 -7 4q4 7 10 26q7 20 3 29q-6 5 -20 5q-14 -1 -25 -2h-3q-4 -1 -6 -1q-8 -1 -8 1q-1 5 12 10q13 6 26 8q12 1 27 0q14 -1 19 -6q2 -5 0 -18q-2 -12 -7 -25v0z" />
    <glyph glyph-name="houzz" unicode="&#xf27c;" 
d="M276 117h-105v-149h-154v448h110v-105l305 -85v-258h-156v149z" />
    <glyph glyph-name="vimeo-v" unicode="&#xf27d;" 
d="M448 294q-3 -65 -92 -179q-91 -119 -154 -119q-39 0 -67 73q-7 29 -14 54q-18 72 -33 111q-14 39 -32 40q-5 0 -35 -21l-21 27q15 13 29 26q31 28 57 49q27 21 46 23q52 5 64 -71q20 -135 38 -162q18 -28 56 35q28 44 30 68q2 33 -20 37q-21 4 -43 -6q33 108 126 105
q69 -2 65 -90v0z" />
    <glyph glyph-name="black-tie" unicode="&#xf27e;" 
d="M0 416v-448h448v448h-448v0zM317 91l-93 -89l-92 89l64 184l-64 86h184l-64 -86l65 -184v0z" />
    <glyph glyph-name="fonticons" unicode="&#xf280;" 
d="M0 416v-448h448v448h-448zM187 275q-13 0 -16 -7v0q-4 -7 -3 -20v-24q0 -1 -1 -2q-2 -2 0 -2h68l-11 -37h-56v-113v-4q-2 -3 3 -3l44 -5v-25h-131v26l21 2q8 0 7 8v111q-1 3 -6 3h-22v37h28v21q1 72 77 70q27 1 45 -10q19 -10 20 -43l-51 -6q1 26 -16 23v0zM261 33v25
l21 3q7 0 7 7v108q0 6 -6 8l-25 6l7 30h80v-152v-4q-2 -3 3 -3l16 -3v-25h-103zM342 289l9 -33l-7 -8l-31 17l-32 -17l-7 8l9 33l-22 24l4 10h28l15 28h9l16 -28h28l3 -10z" />
    <glyph glyph-name="reddit-alien" unicode="&#xf281;" horiz-adv-x="512" 
d="M440 244q-23 0 -38 -15q-55 38 -137 42l28 125l88 -20q1 -17 12 -28t27 -11q17 0 29 11q11 12 11 28q0 17 -11 28q-12 12 -29 12q-24 -1 -35 -22l-97 22q-8 1 -11 -7l-31 -138q-81 -5 -136 -43q-15 16 -38 16q-28 -1 -42 -20t-10 -42q4 -24 29 -38q-3 -12 -3 -24
q2 -65 62 -108q59 -42 148 -44q90 2 149 44q60 43 62 108q0 13 -3 25q25 14 28 37q4 23 -10 42t-42 21v-1zM129 139q1 17 12 28v0q11 11 28 12q17 -1 28 -12t11 -28t-11 -28t-28 -11t-28 11t-12 28v0zM344 46q-20 -19 -54 -25v0q-34 -6 -68 0v0q-34 6 -54 25q-6 6 0 13
q7 6 13 0q15 -14 45 -19q29 -5 59 0t45 19q7 6 14 0q6 -7 0 -13v0zM343 100q-17 0 -28 11v0q-11 11 -11 28t11 28t28 12q17 -1 28 -12t12 -28q-1 -17 -12 -28t-28 -11v0z" />
    <glyph glyph-name="edge" unicode="&#xf282;" horiz-adv-x="512" 
d="M120 411q63 38 135 37q84 -1 141 -36q58 -34 87 -84t29 -100q-1 -50 -36 -87q-36 -35 -87 -37q-55 1 -74 13q-18 11 -17 19q0 5 5 10l1 1v1q16 18 16 42q-2 61 -54 101t-130 42q-57 0 -108 -27q23 43 53 71q30 27 39 33v0q1 1 0 1v0v0v0zM136 92q-2 -45 16 -87
q21 -40 57 -69q-91 19 -150 89q-58 72 -59 165q2 40 40 66q39 27 96 28q56 1 102 -32l-4 -1q-40 -16 -68 -61q-29 -45 -30 -98v0v0zM470 48h-1q-18 -28 -42 -50q-47 -42 -109 -50q-28 0 -54 12q-39 17 -61 53q-22 37 -19 79q0 31 15 59q21 -51 67 -81q47 -30 102 -29
q47 0 90 21l2 1q6 4 11 0q5 -7 -1 -14v0v-1v0v0v0z" />
    <glyph glyph-name="codiepie" unicode="&#xf284;" horiz-adv-x="472" 
d="M423 245q15 -1 21 -14v0q5 -12 0 -25v0q-5 -13 -22 -14h-11v-44h-26v97h38v0zM472 95q-32 -69 -89 -110v0q-58 -40 -135 -41q-69 1 -125 34t-89 89t-34 125q1 69 34 125t89 89t125 34q73 -1 129 -37q55 -37 89 -101l-186 -109l192 -98v0zM434 83l-61 31q-42 -69 -122 -72
q-64 2 -106 44t-43 105q1 64 43 106t106 43q74 -1 117 -63l59 34q-31 48 -77 74t-102 26q-61 0 -111 -29q-49 -30 -79 -79q-29 -50 -29 -111t29 -111q30 -49 79 -79q50 -29 111 -30q60 1 108 30t78 81v0z" />
    <glyph glyph-name="modx" unicode="&#xf285;" 
d="M356 206l37 -24v-214l-133 84l96 154v0zM440 373h-214l-23 -38l154 -96l83 134v0zM351 230l-296 186v-215l46 -29l250 58v0zM97 154l-89 -143h214l125 200l-250 -57v0z" />
    <glyph glyph-name="fort-awesome" unicode="&#xf286;" horiz-adv-x="512" 
d="M489 160h-27q-4 0 -5 -5v-32h-36v179q-1 4 -5 4h-27q-5 0 -5 -4v-32h-37v32q0 4 -4 4h-28q-4 0 -4 -4v-32h-37v32q-2 6 -10 4h-2v38q13 4 26 4q8 0 16 -2t16 -2q4 -1 15 1q11 1 12 7v60q0 4 -4 4t-9 -2q-7 -2 -15 -2q-7 0 -15 2q-9 2 -18 2q-12 0 -24 -3v5q9 5 9 14
q-1 16 -15 16t-16 -16q1 -9 9 -14v-112h-2q-8 2 -10 -4v-32h-36v32q0 4 -5 4h-27q-4 0 -5 -4v-32h-36v32q0 4 -5 4h-27q-4 0 -5 -4v-179h-36v32q-1 5 -5 5h-27q-4 0 -5 -5v-219h183v96q2 36 29 48q26 12 52 0q27 -12 29 -48v-96h183v219q-1 5 -5 5v0zM201 165q0 -5 -4 -5
h-28q-4 0 -4 5v64q0 4 4 4h28q4 0 4 -4v-64v0zM348 165q-1 -5 -5 -5h-27q-5 0 -5 5v64q0 4 5 4h27q4 0 5 -4v-64v0z" />
    <glyph glyph-name="usb" unicode="&#xf287;" horiz-adv-x="640" 
d="M642 192q-1 -5 -5 -8l-89 -53q-2 -1 -5 -1q-2 0 -4 1q-4 2 -5 7v36h-238q12 -21 23 -46q10 -24 21 -42t25 -19h27v27q1 8 9 9h89q8 -1 9 -9v-89q-1 -8 -9 -9h-89q-8 1 -9 9v27h-27q-31 1 -50 28q-18 26 -30 57q-10 24 -20 40q-11 16 -24 17h-101q-6 -23 -25 -38
q-18 -15 -44 -15q-30 0 -50 21q-20 20 -21 50q1 30 21 50q20 21 50 21q26 0 44 -15q19 -15 25 -38h13q20 -3 31 6q12 10 31 54q26 60 47 72q21 13 51 10h11q13 34 50 36q23 -1 38 -16t16 -38q-1 -22 -16 -37q-15 -16 -38 -16q-37 2 -50 35h-30q-14 0 -25 -18t-21 -42
q-11 -25 -24 -46h311v35q0 5 4 8q5 2 9 0l89 -54q4 -2 5 -7v0z" />
    <glyph glyph-name="product-hunt" unicode="&#xf288;" horiz-adv-x="512" 
d="M326 229q0 -16 -11 -26v0q-10 -11 -26 -11h-70v74h70q16 0 26 -11q11 -10 11 -26v0zM504 192q-1 -69 -34 -125v0q-33 -56 -89 -89v0q-56 -33 -125 -34q-69 1 -125 34t-89 89t-34 125q1 69 34 125t89 89t125 34q69 -1 125 -34t89 -89t34 -125v0zM376 229q-1 37 -26 62v0
q-24 24 -61 25h-120v-248h50v74h70q37 1 61 26q25 24 26 61v0z" />
    <glyph glyph-name="mixcloud" unicode="&#xf289;" horiz-adv-x="640" 
d="M213 101h-33v152l6 22h-11l-38 -174h-61l-38 174h-11l6 -22v-152h-33v182h66l36 -173h9l36 173h66v-182v0zM544 164l-86 -62v38l73 52l-73 52v38l86 -62h10l86 62v-38l-73 -52l73 -52v-38l-86 62h-10v0zM430 176h-182v33h182v-33v0z" />
    <glyph glyph-name="scribd" unicode="&#xf28a;" horiz-adv-x="384" 
d="M42 195q-24 29 -24 80q1 76 49 114q47 39 118 39q70 -1 114 -24t65 -43q3 -2 5 -3l-50 -72l-38 24l27 39q-56 36 -123 36q-40 0 -75 -20q-34 -20 -37 -57q2 -25 29 -15q35 7 56 -14q19 -20 18 -46q-1 -27 -19 -46q-23 -22 -57 -20t-58 28v0zM360 189q-25 29 -63 29
q-30 1 -50 -18t-21 -49q0 -26 19 -45q21 -21 56 -14q27 10 29 -16q0 -6 -2 -12q-27 -63 -121 -65q-80 1 -144 48l33 39l-35 27l-61 -71l15 -14q40 -35 89 -54q49 -18 102 -18q39 -1 71 9q33 10 63 35q28 26 38 63q10 36 4 71q-5 34 -22 55v0z" />
    <glyph glyph-name="bluetooth" unicode="&#xf293;" 
d="M293 277l-43 -43l-1 86l44 -43v0zM249 57l44 43l-43 43l-1 -86v0zM416 189q0 -102 -23 -157v0q-22 -55 -64 -76v0q-41 -21 -98 -20q-57 -1 -102 20t-71 76q-25 55 -26 157q0 101 26 158q25 57 69 79q45 23 102 22q86 3 136 -53q50 -55 51 -206v0zM258 189l79 88l-125 134
v-176l-74 73l-27 -27l93 -93l-93 -93l27 -26l74 73l2 -170l127 128l-83 89v0z" />
    <glyph glyph-name="bluetooth-b" unicode="&#xf294;" horiz-adv-x="320" 
d="M196 188l93 103l-146 157v-206l-86 86l-31 -32l108 -108l-108 -108l31 -32l86 86l3 -198l148 149l-98 103v0zM237 291l-50 -50v100l50 -50v0zM187 135l50 -50l-50 -50v100v0z" />
    <glyph glyph-name="gitlab" unicode="&#xf296;" horiz-adv-x="512" 
d="M504 243l-1 2l-70 182q-2 5 -7 9q-4 2 -8 2q-4 1 -8 -1q-5 -1 -8 -4l-4 -8l-47 -144h-190l-47 144l-4 8q-3 3 -7 4q-5 2 -9 1q-4 0 -8 -2q-5 -4 -7 -9l-70 -182v-2q-16 -40 -4 -82q12 -41 46 -67h1v-1l106 -79l53 -40l32 -24v0q6 -4 13 -5q7 1 13 5v0l32 24l53 40l106 80
h1q34 26 45 67q13 42 -2 82v0z" />
    <glyph glyph-name="wpbeginner" unicode="&#xf297;" horiz-adv-x="512" 
d="M463 126q27 -34 22 -70v0q-5 -36 -35 -61v0q-30 -26 -79 -27q-30 0 -57 13t-43 37h-15h-15q-16 -24 -43 -37t-57 -13q-48 1 -79 27q-30 25 -35 61t22 70q-38 67 -20 134q17 66 78 110q60 44 149 46q89 -2 149 -46q61 -44 78 -111q18 -66 -20 -133v0zM123 209h42v58h-42
v-58v0zM340 123v23q-46 -15 -95 -7q-50 9 -92 41v-25q40 -34 92 -43q52 -8 95 11v0zM190 209h166v58h-166v-58v0z" />
    <glyph glyph-name="wpforms" unicode="&#xf298;" 
d="M448 373v-362q0 -19 -13 -31q-12 -12 -30 -12h-362q-18 0 -30 12q-13 12 -13 31v362q0 18 12 30q12 13 31 13h362q18 0 30 -12q13 -12 13 -31v0zM411 11v362q-1 5 -6 6h-9l-111 -75l-61 50l-61 -50l-110 75h-10q-5 -1 -6 -6v-362q1 -5 6 -6h362q5 1 6 6v0zM150 262v-37
h-73v37h73v0zM150 188v-38h-73v38h73v0zM161 335l54 44h-118l64 -44v0zM371 262v-37h-196v37h196v0zM371 188v-38h-196v38h196v0zM287 335l64 44h-118l54 -44v0zM371 113v-37h-99v37h99v0z" />
    <glyph glyph-name="envira" unicode="&#xf299;" 
d="M0 416q157 -2 238 -40v0q82 -39 111 -96v0q29 -56 29 -112v0q-1 -56 -8 -92v0q-3 -18 -3 -26l81 -82h-26l-70 71q-9 -1 -21 -3q-34 -8 -85 -6q-51 3 -109 46q-48 39 -69 90q-20 51 -37 127q-12 53 -31 123v0zM80 370q-24 11 -24 8v0q0 -3 9 -10v0q8 -6 10 -7
q31 -23 51 -52q19 -29 35 -62l4 -6q23 -47 59 -96t85 -72q35 -15 38 -15q2 0 -12 10q-9 6 -20 14q-22 18 -48 57q-25 38 -43 73q-1 2 -3 4q-21 45 -52 85q-30 40 -89 69v0z" />
    <glyph glyph-name="accessible-icon" unicode="&#xf368;" 
d="M424 192l-13 -157q-3 -20 -18 -26q-15 -5 -29 3t-14 28l10 122l-41 -2q16 -31 16 -69q-1 -63 -42 -106l-40 39q29 33 26 72q-2 38 -29 66q-26 28 -71 29q-39 0 -67 -26l-39 40q34 32 81 40l76 86l-43 24l-51 -46q-16 -12 -31 -6q-15 7 -20 22q-4 16 10 30l68 61
q17 13 36 3q2 -1 36 -21q33 -19 67 -39q33 -19 36 -21q12 -8 15 -24q2 -15 -9 -29l-58 -66l106 6q14 0 23 -9q10 -10 9 -24v0zM359 346q22 1 36 15v0q14 14 15 36q-1 22 -15 36t-36 15q-22 -1 -36 -15t-15 -36q1 -22 15 -36t36 -15v0zM180 -9q-41 2 -68 26v0q-26 25 -31 61
v0q-6 36 16 70l-40 39q-32 -40 -33 -95q2 -67 43 -108t98 -47q58 -7 110 32l-39 40q-25 -17 -56 -17v-1z" />
    <glyph glyph-name="accessible-icon" unicode="&#xf29b;" 
d="M424 192l-13 -157q-3 -20 -18 -26q-15 -5 -29 3t-14 28l10 122l-41 -2q16 -31 16 -69q-1 -63 -42 -106l-40 39q29 33 26 72q-2 38 -29 66q-26 28 -71 29q-39 0 -67 -26l-39 40q34 32 81 40l76 86l-43 24l-51 -46q-16 -12 -31 -6q-15 7 -20 22q-4 16 10 30l68 61
q17 13 36 3q2 -1 36 -21q33 -19 67 -39q33 -19 36 -21q12 -8 15 -24q2 -15 -9 -29l-58 -66l106 6q14 0 23 -9q10 -10 9 -24v0zM359 346q22 1 36 15v0q14 14 15 36q-1 22 -15 36t-36 15q-22 -1 -36 -15t-15 -36q1 -22 15 -36t36 -15v0zM180 -9q-41 2 -68 26v0q-26 25 -31 61
v0q-6 36 16 70l-40 39q-32 -40 -33 -95q2 -67 43 -108t98 -47q58 -7 110 32l-39 40q-25 -17 -56 -17v-1z" />
    <glyph glyph-name="glide" unicode="&#xf2a5;" 
d="M253 299q-1 -13 -4 -26q-8 -42 -17 -84q-3 -6 -11 -5h-3q-17 2 -24 16q-6 14 -6 30q0 23 9 47t29 36q7 4 15 4q14 -1 12 -18v0zM448 368v-352q-1 -20 -14 -34q-14 -13 -34 -14h-352q-20 1 -34 14q-13 14 -14 34v352q1 20 14 34q14 13 34 14h352q20 -1 34 -14
q13 -14 14 -34v0zM384 181q-1 6 -11 21v0q-10 15 -14 18q-5 2 -10 3q-29 -2 -52 -18l-6 -4l-1 1q3 16 7 32q7 27 8 55q-1 65 -68 63q-54 -3 -81 -42t-27 -82q3 -83 87 -85h3q5 1 3 -2q-10 -59 -32 -68q-21 -10 -24 9q1 15 10 24t16 12l2 2q-1 6 -15 12q-14 5 -21 5
q-16 -1 -25 -18q-8 -17 -8 -32q0 -25 14 -40t39 -15q37 2 61 30q25 29 34 62q4 20 6 29q2 13 6 13q27 16 58 17q11 0 24 -3q5 -1 13 -2q3 0 4 3v0z" />
    <glyph glyph-name="glide-g" unicode="&#xf2a6;" 
d="M407 237q-7 3 -15 4q-25 -1 -45 -9q-20 -9 -39 -21q-5 -2 -10 -5l-1 1q4 26 11 51q11 44 13 89q0 54 -28 78q-28 23 -81 23q-57 -1 -96 -33q-38 -31 -58 -76q-19 -46 -19 -89q0 -67 37 -102q36 -35 102 -35h5q8 1 6 -4q-10 -63 -31 -90q-22 -27 -40 -26q-19 2 -20 22
q1 23 16 38q15 14 25 19q4 3 4 4q-2 9 -25 18q-22 9 -34 9q-25 -2 -39 -29q-13 -27 -13 -50q0 -40 23 -64q23 -23 63 -24q58 3 98 47q39 45 53 98q8 33 10 47l4 16q2 3 6 5q23 12 45 20q22 7 48 7q17 0 38 -5q9 -1 21 -3q6 0 7 5q-1 5 -9 20q-8 14 -18 28q-10 13 -14 16v0z
M232 321l-28 -134q-5 -11 -18 -8h-4q-28 2 -39 25t-10 48q0 37 14 75q15 39 48 59q11 6 22 6q14 0 17 -8q4 -9 3 -20q0 -22 -5 -43v0z" />
    <glyph glyph-name="viadeo" unicode="&#xf2a9;" 
d="M276 297v0q-27 79 -71 151q33 -24 51 -67q17 -44 20 -84v0zM309 176q11 -28 11 -57q-1 -60 -39 -100q-38 -39 -99 -40l4 1q110 72 109 205q0 57 -19 112q2 -18 1 -36q1 -47 -8 -104q-9 -58 -34 -106q-26 -49 -74 -70q-50 10 -81 48q-30 37 -31 90q2 58 39 99t97 43
q25 0 49 -10q3 23 13 44q-30 11 -62 10q-82 -2 -130 -55q-48 -52 -51 -125q-3 -72 51 -133q35 -37 82 -50q48 -12 95 0q48 13 83 50q41 47 48 101q7 55 -12 100q-19 -12 -42 -17v0zM418 436q-14 -29 -33 -41v0q-19 -11 -38 -16v0q-24 -6 -45 -23q-9 -9 -15 -23
q-5 -14 -5 -27q0 -22 12 -39q36 9 69 33t49 58q-2 -11 -7 -20q-17 -27 -45 -48q-28 -22 -55 -37q23 -23 55 -25q40 2 62 37q22 36 22 84t-26 87v0z" />
    <glyph glyph-name="square-viadeo" unicode="&#xf2aa;" 
d="M400 416h-352q-20 -1 -34 -14q-13 -14 -14 -34v-352q1 -20 14 -34q14 -13 34 -14h352q20 1 34 14q13 14 14 34v352q-1 20 -14 34q-14 13 -34 14v0zM281 67q-34 -35 -81 -35v0q-48 0 -82 35q-33 38 -31 83q1 46 31 78q30 33 82 35q20 0 39 -7q-7 -13 -9 -27q-15 6 -30 6
q-38 -1 -61 -27q-23 -25 -24 -62q0 -33 19 -56q19 -24 50 -30q31 13 47 44q15 30 21 66t5 65v22q-18 50 -44 95q20 -15 31 -42t13 -52v-1q11 -34 12 -70q0 -82 -69 -128h-2q38 0 62 25q23 25 24 62q0 19 -7 36q15 3 27 10q11 -28 7 -62t-30 -63v0zM309 214q-20 2 -34 16
q17 9 34 23q18 14 28 30q3 6 4 12q-10 -21 -30 -36q-21 -15 -43 -20q-8 11 -8 24q1 18 13 32q13 10 28 14q12 3 24 10q11 7 20 26q16 -25 16 -55t-13 -52q-14 -23 -39 -24v0z" />
    <glyph glyph-name="snapchat" unicode="&#xf2ac;" horiz-adv-x="512" 
d="M497 81q-6 13 -17 19q-2 1 -4 1q-1 1 -3 2l-4 2q-34 18 -52 45q-6 8 -10 16q-1 5 0 7t3 3q6 4 11 7q7 4 11 7q14 10 20 21q9 18 2 36q-11 25 -40 26q-6 0 -12 -1q-1 0 -3 -1q0 17 -1 35q-3 30 -12 48q-9 19 -21 31q-14 16 -33 27q-34 19 -76 19t-76 -19q-19 -11 -33 -27
q-12 -13 -21 -31t-12 -48q-1 -18 -1 -35q-2 0 -3 1q-6 1 -12 1q-29 -1 -40 -26q-7 -18 2 -36q6 -11 20 -21q3 -2 8 -5q2 -1 3 -2q4 -3 10 -7q2 -1 4 -3q1 -2 -1 -7q-3 -8 -9 -16q-18 -26 -51 -44q-3 -2 -5 -3q-16 -6 -24 -22q-6 -16 9 -32q5 -6 12 -10q14 -8 30 -12
q4 -1 6 -3q3 -2 4 -6q1 -3 4 -8q4 -6 9 -9q15 -9 33 -8q17 0 37 -6q9 -3 19 -10q12 -8 31 -16q19 -7 47 -8q28 1 47 8q19 8 31 16v0q10 7 19 10q20 6 36 6h1q18 -1 33 7q6 5 10 12q2 3 3 6q1 4 4 6q2 2 5 3q16 4 31 12q7 4 13 10v1q14 15 8 31v0zM463 63q-17 -8 -29 -11v0
q-9 -2 -16 -6q-7 -5 -7 -13q0 -7 -4 -10q-5 -3 -19 -3q-17 1 -44 -7q-12 -5 -24 -12q-12 -8 -26 -14q-15 -6 -38 -7q-22 1 -37 7t-26 14q-12 7 -25 12q-27 8 -44 7q-14 0 -19 3q-4 3 -4 10q0 8 -7 13q-7 4 -16 6q-12 3 -29 11q-9 6 -7 9t6 5q55 30 72 60q17 31 15 37h1
q2 7 -5 14q-8 7 -25 17q-7 5 -11 7q-16 11 -12 25q5 9 15 9q3 0 6 -1q11 -3 20 -6q6 -3 11 -4h2q5 -1 5 5q0 2 -1 4q-2 23 0 59q2 24 9 39q7 14 17 25q5 7 26 21q22 14 63 16q41 -2 63 -16q21 -14 26 -21q10 -10 17 -25q7 -14 9 -39q1 -17 1 -34q-1 -16 -2 -27v-1q0 -7 5 -6
h2q5 1 11 4q9 4 20 6q3 1 6 1q10 0 15 -9q4 -14 -12 -25q-4 -2 -11 -6q-17 -11 -25 -18q-7 -7 -5 -14h1q-2 -5 15 -36t72 -61q4 -1 6 -5q2 -3 -7 -9v0z" />
    <glyph glyph-name="snapchat" unicode="&#xf2ab;" horiz-adv-x="512" 
d="M497 81q-6 13 -17 19q-2 1 -4 1q-1 1 -3 2l-4 2q-34 18 -52 45q-6 8 -10 16q-1 5 0 7t3 3q6 4 11 7q7 4 11 7q14 10 20 21q9 18 2 36q-11 25 -40 26q-6 0 -12 -1q-1 0 -3 -1q0 17 -1 35q-3 30 -12 48q-9 19 -21 31q-14 16 -33 27q-34 19 -76 19t-76 -19q-19 -11 -33 -27
q-12 -13 -21 -31t-12 -48q-1 -18 -1 -35q-2 0 -3 1q-6 1 -12 1q-29 -1 -40 -26q-7 -18 2 -36q6 -11 20 -21q3 -2 8 -5q2 -1 3 -2q4 -3 10 -7q2 -1 4 -3q1 -2 -1 -7q-3 -8 -9 -16q-18 -26 -51 -44q-3 -2 -5 -3q-16 -6 -24 -22q-6 -16 9 -32q5 -6 12 -10q14 -8 30 -12
q4 -1 6 -3q3 -2 4 -6q1 -3 4 -8q4 -6 9 -9q15 -9 33 -8q17 0 37 -6q9 -3 19 -10q12 -8 31 -16q19 -7 47 -8q28 1 47 8q19 8 31 16v0q10 7 19 10q20 6 36 6h1q18 -1 33 7q6 5 10 12q2 3 3 6q1 4 4 6q2 2 5 3q16 4 31 12q7 4 13 10v1q14 15 8 31v0zM463 63q-17 -8 -29 -11v0
q-9 -2 -16 -6q-7 -5 -7 -13q0 -7 -4 -10q-5 -3 -19 -3q-17 1 -44 -7q-12 -5 -24 -12q-12 -8 -26 -14q-15 -6 -38 -7q-22 1 -37 7t-26 14q-12 7 -25 12q-27 8 -44 7q-14 0 -19 3q-4 3 -4 10q0 8 -7 13q-7 4 -16 6q-12 3 -29 11q-9 6 -7 9t6 5q55 30 72 60q17 31 15 37h1
q2 7 -5 14q-8 7 -25 17q-7 5 -11 7q-16 11 -12 25q5 9 15 9q3 0 6 -1q11 -3 20 -6q6 -3 11 -4h2q5 -1 5 5q0 2 -1 4q-2 23 0 59q2 24 9 39q7 14 17 25q5 7 26 21q22 14 63 16q41 -2 63 -16q21 -14 26 -21q10 -10 17 -25q7 -14 9 -39q1 -17 1 -34q-1 -16 -2 -27v-1q0 -7 5 -6
h2q5 1 11 4q9 4 20 6q3 1 6 1q10 0 15 -9q4 -14 -12 -25q-4 -2 -11 -6q-17 -11 -25 -18q-7 -7 -5 -14h1q-2 -5 15 -36t72 -61q4 -1 6 -5q2 -3 -7 -9v0z" />
    <glyph glyph-name="square-snapchat" unicode="&#xf2ad;" 
d="M384 416h-320q-26 0 -45 -19t-19 -45v-320q0 -26 19 -45t45 -19h320q26 0 45 19t19 45v320q0 26 -19 45t-45 19v0zM380 97v0q-4 -5 -9 -7q-9 -6 -20 -8l-4 -2q-2 -2 -3 -4q0 -2 -2 -5q-2 -4 -6 -7q-11 -6 -23 -5v0q-10 0 -24 -4q-6 -2 -13 -7v0q-8 -5 -21 -10
q-12 -6 -31 -6t-31 6q-13 5 -21 10q-7 5 -13 7q-14 4 -24 4q-12 -1 -23 5q-3 2 -6 6q-2 3 -3 6q0 2 -2 4l-4 2q-11 2 -20 8q-5 2 -9 6q-9 11 -5 22q5 11 16 14q1 1 3 2q22 12 35 30q3 5 6 11q1 3 0 4l-2 2q-4 3 -7 5q-1 0 -2 1q-4 2 -6 4q-9 6 -13 14q-6 11 -2 24
q8 17 27 17q4 0 8 -1h2q0 11 1 23q5 38 22 53q9 11 22 18q23 13 51 13t51 -13q13 -7 22 -18q17 -15 22 -53q1 -11 1 -23h2q4 1 8 1q19 0 27 -17q4 -13 -2 -24q-4 -8 -13 -14q-3 -2 -8 -5q-3 -2 -7 -5l-2 -2t0 -4q3 -6 6 -11q13 -18 36 -30q1 -1 2 -1l2 -2q1 0 3 -1
q8 -3 11 -12q4 -11 -5 -21v0zM363 115q-36 20 -48 41v0q-11 20 -10 24v0q-2 5 2 9q6 5 17 12q5 3 7 5q12 7 9 16q-3 6 -10 6h-4q-8 -2 -14 -5q-4 -1 -7 -2h-1q-4 -1 -3 4v1q1 15 0 40q-4 31 -17 43q-3 5 -18 14q-15 10 -42 11q-27 -1 -42 -11q-15 -9 -18 -14
q-13 -12 -17 -43q-1 -24 0 -39v-3q1 -4 -3 -4l-1 1q-3 0 -7 2q-6 3 -14 5h-4q-7 0 -10 -6q-3 -9 9 -16q2 -2 7 -5q11 -7 17 -12q4 -4 2 -9v0q1 -4 -10 -24q-12 -21 -48 -41q-3 -1 -4 -3q-2 -3 5 -6q11 -6 19 -7q6 -2 11 -5q4 -3 4 -8t3 -7t12 -2q12 0 30 -5q9 -3 16 -8
q14 -12 43 -14q29 2 43 14q8 5 16 8q18 5 30 5q9 0 12 2t3 6q0 6 4 9q5 3 11 4q8 2 20 8q6 3 4 6q-1 2 -4 3v0z" />
    <glyph glyph-name="pied-piper" unicode="&#xf2ae;" horiz-adv-x="480" 
d="M456 425q-43 -10 -115 -68q-47 27 -101 27q-88 -2 -147 -61t-61 -147q2 -88 61 -147t147 -61q88 2 147 61t61 147q-1 84 -59 145q-10 -13 -17 -28q44 -50 45 -117q-2 -75 -52 -125t-125 -52q-47 0 -88 23q24 30 46 45t41 25q32 13 57 43q25 29 41 114q2 25 28 68
q26 42 98 92q6 5 3 11t-10 5v0zM125 42q-30 25 -46 60v0q-16 35 -16 74q2 75 52 125t125 52q40 0 77 -18q-50 -46 -97 -117t-95 -176v0z" />
    <glyph glyph-name="first-order" unicode="&#xf2b0;" 
d="M13 219v0v0v0v0v0v0zM224 351q-11 0 -21 -1l3 -68l-22 64q-21 -5 -40 -16l30 -62l-45 51q-18 -13 -31 -31l51 -45l-61 30q-11 -19 -17 -40l64 -23l-68 4q-1 -11 -1 -22t1 -22l68 4l-64 -22q6 -22 17 -41l61 30l-51 -45q13 -18 31 -31l45 51l-30 -61q19 -12 40 -17l22 64
l-4 -68q11 -1 22 -1t22 1l-4 69l22 -65q22 6 40 17l-29 61l45 -51q17 13 30 31l-50 45l61 -29q11 18 17 40l-64 22l67 -4q1 11 1 22t-1 22l-68 -4l64 22q-5 22 -16 41l-61 -30l50 45q-13 18 -30 31l-45 -51l29 61q-18 12 -40 17l-22 -64l4 68q-11 1 -22 1v0zM443 320v-256
l-219 -128l-219 128v256l219 128l219 -128v0zM426 310l-202 117l-202 -117v-235l202 -118l202 118v235v0zM224 411l188 -110v-218l-188 -110l-188 110v218l188 110v0zM224 360q-71 -2 -118 -49v0q-47 -48 -49 -119q2 -71 49 -119q47 -47 118 -49q71 2 118 49q47 48 49 119
q-2 71 -49 119q-47 47 -118 49v0z" />
    <glyph glyph-name="yoast" unicode="&#xf2b1;" 
d="M91 372h186l-7 -19h-179q-30 -1 -51 -21q-20 -19 -21 -49v-206q0 -27 20 -48t64 -22v-19h-12q-38 1 -64 26q-26 26 -27 63v206q1 38 27 63q25 25 64 26v0zM320 428h67q-43 -112 -71 -187q-37 -98 -56 -147t-31 -70t-27 -35q-33 -32 -78 -33v51q36 7 51 31q14 24 14 44v1
q0 7 -4 20q-3 12 -21 56q-17 44 -58 147h62l50 -157l102 279v0zM448 286v-298h-214q10 15 12 19h183v279q-1 48 -49 63l7 18q62 -22 61 -81v0z" />
    <glyph glyph-name="themeisle" unicode="&#xf2b2;" horiz-adv-x="512" 
d="M208 360q0 8 5 14v0q4 7 13 7q8 0 13 -7q4 -6 4 -14q0 -19 -17 -22q-18 3 -18 22v0zM512 200q0 -29 -9 -68v0q-9 -39 -27 -62q-20 -20 -57 -41t-64 -30h-1v-32q-1 -13 -9 -22t-20 -9q-16 1 -25 14q-9 -13 -25 -14q-16 1 -25 14q-8 -13 -24 -14q-16 1 -25 14
q-9 -13 -25 -14q-14 0 -21 10q-8 10 -8 23q-25 -19 -57 -20q-34 1 -60 23q16 1 30 6q-32 9 -52 36q34 -7 67 11q-17 18 -38 42q-20 24 -30 46q-8 22 -7 46q0 26 8 63t27 66t51 31q17 0 23 -15q6 8 12 15l3 3l5 5q4 7 7 12q5 10 14 22q25 32 60 51q35 18 75 19q9 0 18 -1
q17 18 42 18q23 0 40 -16q1 -2 1 -4q-2 -6 -11 -14l-2 -2q4 -1 10 -5q5 -3 6 -7q-1 -3 -4 -6q0 -1 -1 -1q47 -44 57 -108q6 8 17 8q16 -1 28 -14q16 -14 21 -36q5 -23 5 -43v0zM188 359q0 -15 9 -26v0q8 -11 23 -12q15 1 24 12q8 11 9 26q-1 14 -9 25q-9 11 -24 11t-23 -11
q-9 -11 -9 -25v0zM238 254q0 30 8 58q-25 -41 -23 -83t26 -71q25 -29 66 -30q33 1 60 20q4 11 4 22q0 22 -21 22q-7 0 -13 -2q-48 -11 -77 2q-30 12 -30 62v0zM197 -1q-2 19 -21 21q-18 -2 -20 -21v-32q2 -19 20 -22q19 2 21 22v32v0zM246 -1q-2 19 -20 21q-19 -2 -21 -21
v-32q2 -19 21 -22q18 3 20 22v32v0zM295 -1q-1 19 -20 21q-19 -2 -20 -21v-32q1 -19 20 -22q19 2 20 22v32v0zM345 -1q-1 19 -20 21q-19 -2 -20 -21v-32q1 -19 20 -22q19 3 20 22v32v0zM422 162q-24 -45 -66 -73v0q-41 -29 -93 -30q-73 3 -116 54q-43 52 -44 123q0 25 6 50
q-30 -52 -30 -112q0 -46 18 -88t53 -73q9 16 26 17q16 -1 25 -15q9 14 25 15q16 -1 24 -15q9 14 25 15q16 -1 25 -15q9 14 25 15q17 -1 25 -16q33 28 51 66q18 39 21 82v0zM432 262q0 42 -24 73v0q-24 31 -68 32q-47 -2 -79 -36q-17 -53 -13 -94q5 -41 54 -43q10 0 23 3
q26 5 47 1q20 -4 15 -41q21 20 33 48q12 27 12 57v0z" />
    <glyph glyph-name="google-plus" unicode="&#xf2b3;" horiz-adv-x="512" 
d="M256 440q-69 -1 -125 -34v0q-56 -33 -89 -89v0q-33 -56 -34 -125q1 -69 34 -125t89 -89t125 -34q69 1 125 34t89 89t34 125q-1 69 -34 125t-89 89t-125 34v0zM185 68q-33 0 -62 17v0q-28 16 -45 45t-17 62t17 62t45 45q29 17 62 17q48 0 83 -32l-33 -33q-21 19 -50 19
q-33 -1 -54 -23q-22 -22 -23 -55q1 -33 23 -55q21 -22 54 -23q26 0 46 14t24 39h-70v43h117q2 -10 2 -21q-1 -54 -33 -87q-31 -33 -86 -34v0zM416 174v-35h-36v35h-35v36h35v35h36v-35h35v-36h-35z" />
    <glyph glyph-name="font-awesome" unicode="&#xf4e6;" 
d="M448 400v-336q-12 -4 -22 -8q-33 -13 -54 -18q-20 -6 -43 -6q-45 2 -75 16t-75 16q-29 -1 -51 -8v64q22 7 51 8q45 -2 75 -16t75 -16q28 0 55 9v208q-27 -9 -55 -9q-45 2 -75 16t-75 16q-23 0 -41 -5t-33 -11q-19 -8 -41 -13v-307q0 -14 -9 -23t-23 -9t-23 9t-9 23v384
q0 14 9 23t23 9t23 -9t9 -23v-13q22 5 41 13q15 6 33 11t41 5q45 -2 75 -16t75 -16q23 0 43 6q21 5 54 18q10 4 22 8v0z" />
    <glyph glyph-name="font-awesome" unicode="&#xf425;" 
d="M448 400v-336q-12 -4 -22 -8q-33 -13 -54 -18q-20 -6 -43 -6q-45 2 -75 16t-75 16q-29 -1 -51 -8v64q22 7 51 8q45 -2 75 -16t75 -16q28 0 55 9v208q-27 -9 -55 -9q-45 2 -75 16t-75 16q-23 0 -41 -5t-33 -11q-19 -8 -41 -13v-307q0 -14 -9 -23t-23 -9t-23 9t-9 23v384
q0 14 9 23t23 9t23 -9t9 -23v-13q22 5 41 13q15 6 33 11t41 5q45 -2 75 -16t75 -16q23 0 43 6q21 5 54 18q10 4 22 8v0z" />
    <glyph glyph-name="font-awesome" unicode="&#xf2b4;" 
d="M448 400v-336q-12 -4 -22 -8q-33 -13 -54 -18q-20 -6 -43 -6q-45 2 -75 16t-75 16q-29 -1 -51 -8v64q22 7 51 8q45 -2 75 -16t75 -16q28 0 55 9v208q-27 -9 -55 -9q-45 2 -75 16t-75 16q-23 0 -41 -5t-33 -11q-19 -8 -41 -13v-307q0 -14 -9 -23t-23 -9t-23 9t-9 23v384
q0 14 9 23t23 9t23 -9t9 -23v-13q22 5 41 13q15 6 33 11t41 5q45 -2 75 -16t75 -16q23 0 43 6q21 5 54 18q10 4 22 8v0z" />
    <glyph glyph-name="linode" unicode="&#xf2b8;" 
d="M366 261l-59 -37l-1 -37l-30 20l-39 -25q2 -40 2 -50q1 -10 0 -9l-97 -65l-15 104l108 62l-40 26l-75 -38l-21 143l129 49l-92 44l-125 -39l27 -135l42 -33l-32 -15l21 -101l30 -28l-21 -13l17 -78l66 -70q-8 54 -10 67q-2 14 -2 12l78 55q12 9 14 10t1 1v0l1 -24l33 -29
v77l46 34l27 18l-2 -36l25 -17l7 74l58 44z" />
    <glyph glyph-name="quora" unicode="&#xf2c4;" 
d="M441 61h-30q-1 -10 -8 -20q-8 -10 -25 -11q-29 2 -49 36q33 26 54 65q20 39 20 88q-2 90 -61 143q-58 53 -137 54q-78 -1 -136 -54q-59 -54 -62 -143q2 -67 39 -116q37 -48 93 -68q57 -20 117 -5q15 -26 37 -43q22 -18 59 -19q40 1 59 20q20 19 25 41q6 22 5 32v0z
M297 119q-14 22 -35 37v0q-21 14 -56 15q-47 -2 -69 -23l12 -24q9 4 20 4q26 -1 42 -19q16 -19 27 -42q-15 -5 -33 -5q-110 1 -107 157q-3 157 107 158q112 -1 109 -158q0 -63 -17 -100v0z" />
    <glyph glyph-name="free-code-camp" unicode="&#xf2c5;" horiz-adv-x="576" 
d="M97 352q16 15 16 22q0 4 -4 7q-3 3 -8 3q-13 0 -36 -26q-31 -34 -47 -72q-15 -38 -15 -88q1 -51 14 -90t40 -72q29 -36 44 -36q5 0 8 4q4 4 4 8q0 8 -13 21q-67 63 -68 165q0 92 65 154v0zM239 28l1 -1zM333 27v1v-1v0zM336 186q-5 1 0 17v0q4 14 5 39v0q0 24 -15 55v0
q-15 31 -58 66q1 0 1 -17q1 -17 -12 -52q-13 -36 -51 -91q-35 -52 -27 -90t31 -60q22 -22 30 -25q-5 2 -14 15q-8 12 -6 40q2 27 29 74q5 8 11 17q14 18 33 55q1 0 6 -18q6 -17 1 -53q-4 -32 6 -44q10 -11 25 -12q14 0 21 2h3q10 -14 5 -31t-14 -30q-10 -13 -13 -15v0
q6 2 30 26q25 23 34 65q9 41 -31 97q-2 -3 -5 -9q-4 -9 -10 -16t-15 -5v0zM511 358q-23 26 -36 26q-5 0 -8 -3q-4 -3 -4 -7q0 -7 16 -22q65 -62 65 -154q-1 -102 -68 -165q-13 -13 -13 -21q0 -4 4 -8q3 -4 8 -4q15 0 44 36q27 33 40 72t14 90q0 50 -15 88q-16 38 -47 72v0z
" />
    <glyph glyph-name="telegram" unicode="&#xf3fe;" horiz-adv-x="496" 
d="M248 440q-69 -1 -125 -34v0q-56 -33 -89 -89v0q-33 -56 -34 -125q1 -69 34 -125t89 -89t125 -34q69 1 125 34t89 89t34 125q-1 69 -34 125t-89 89t-125 34v0zM363 271q-2 -20 -7 -54v0q-5 -33 -11 -67v0q-6 -34 -10 -57q-6 -26 -17 -25q-16 0 -31 12l-8 6q-17 11 -29 20
q-12 8 -27 17q-15 11 -12 18q2 8 12 16l6 6q1 2 11 10q16 15 35 34q20 18 22 23q1 1 -1 4q-3 2 -5 1q-4 -1 -105 -70q-15 -10 -27 -9q-7 0 -18 3q-11 2 -20 6q-3 1 -6 1q-21 5 -21 15q1 7 18 14q109 47 145 62q50 21 68 27q19 7 24 7t10 -3q3 -3 4 -7v-10v0z" />
    <glyph glyph-name="telegram" unicode="&#xf2c6;" horiz-adv-x="496" 
d="M248 440q-69 -1 -125 -34v0q-56 -33 -89 -89v0q-33 -56 -34 -125q1 -69 34 -125t89 -89t125 -34q69 1 125 34t89 89t34 125q-1 69 -34 125t-89 89t-125 34v0zM363 271q-2 -20 -7 -54v0q-5 -33 -11 -67v0q-6 -34 -10 -57q-6 -26 -17 -25q-16 0 -31 12l-8 6q-17 11 -29 20
q-12 8 -27 17q-15 11 -12 18q2 8 12 16l6 6q1 2 11 10q16 15 35 34q20 18 22 23q1 1 -1 4q-3 2 -5 1q-4 -1 -105 -70q-15 -10 -27 -9q-7 0 -18 3q-11 2 -20 6q-3 1 -6 1q-21 5 -21 15q1 7 18 14q109 47 145 62q50 21 68 27q19 7 24 7t10 -3q3 -3 4 -7v-10v0z" />
    <glyph glyph-name="bandcamp" unicode="&#xf2d5;" horiz-adv-x="512" 
d="M256 440q-69 -1 -125 -34v0q-56 -33 -89 -89v0q-33 -56 -34 -125q1 -69 34 -125t89 -89t125 -34q69 1 125 34t89 89t34 125q-1 69 -34 125t-89 89t-125 34v0zM304 114h-181l85 156h181z" />
    <glyph glyph-name="grav" unicode="&#xf2d6;" horiz-adv-x="512" 
d="M301 236q7 -8 0 -16l-10 -10q-8 -7 -16 0l-11 10q-6 9 0 17l10 10q8 6 17 0l10 -11v0zM271 256q4 5 0 10q-5 5 -11 0q-4 -5 0 -10q6 -5 11 0v0zM245 250q-5 -5 0 -10q5 -4 10 0q5 5 0 10t-10 0v0zM317 264q-15 11 -21 30v0q-6 19 10 38q16 18 30 15q15 -2 29 -16
q2 -1 3 -2q9 -8 16 -19q6 -11 -1 -27q-11 -18 -30 -24q-20 -6 -36 5v0zM365 308q-7 7 -14 -1v0q-6 -7 -1 -15q7 -7 16 -2q10 4 -1 18v0zM504 192q-1 -69 -34 -125v0q-33 -56 -89 -89v0q-56 -33 -125 -34q-69 1 -125 34t-89 89t-34 125q1 69 34 125t89 89t125 34
q69 -1 125 -34t89 -89t34 -125v0zM438 149q0 14 -14 18v0q-8 3 -11 8q-10 18 -23 27q-12 8 -32 3q9 6 16 7h8q2 8 -10 24q3 10 2 16l-1 7h-1q25 14 30 43q2 24 -12 42t-38 21q-36 2 -54 -26q-16 -30 -6 -52q11 -21 28 -29q-12 1 -23 9q-12 8 -17 25q-5 20 -1 36q5 16 10 25
q-2 3 -8 9q-1 1 -9 0q-7 -1 -16 -5q9 11 17 13t8 1v0q1 11 -3 22q-5 9 -15 9t-17 -12v1v0q-4 -11 0 -37t17 -50q-5 -4 -13 -10q-17 -11 -36 -34q-18 -24 -20 -27q-23 -9 -48 -33t-23 -46q1 -5 3 -8q-4 -3 -8 -8q-9 -12 -4 -22q5 -9 22 -3q25 13 36 31q0 2 -16 4q10 3 17 5
q19 5 29 4q6 0 7 16t1 19v0q1 23 -11 41q10 -9 19 -24q9 -16 9 -37q-1 -13 -8 -18q-6 -5 -7 -5v0q-2 -3 -4 -7q-11 -17 -22 -44q-12 -27 -5 -55q0 1 -5 9q-4 7 -5 14q-15 -16 -27 -35q-12 -20 3 -30q14 -6 40 19q27 24 51 59q25 36 35 64q26 16 42 34q15 18 22 31
q12 -22 34 -42q23 -20 43 -27q20 -6 24 10v0z" />
    <glyph glyph-name="etsy" unicode="&#xf2d7;" horiz-adv-x="384" 
d="M384 100q-1 -7 -4 -34v0q-4 -27 -7 -56v0q-3 -29 -4 -42q-87 3 -173 3q-86 1 -196 -3v25q8 2 15 3q25 4 36 10q10 6 10 23q1 38 2 98v122q0 61 -2 102q0 18 -10 23q-9 6 -36 10q-7 1 -15 3v25h5q40 -1 104 -3q64 -1 132 0t122 7q-2 -20 -4 -50q-1 -29 -2 -52
q-2 -23 -2 -24v-1h-23q-2 7 -3 14q-7 30 -18 53q-10 23 -34 24h-137q-13 0 -10 -10v-164q87 1 88 3q19 0 25 9t12 38q1 8 4 18h26q-2 -25 -2 -40q-1 -24 -2 -36v-28q1 -16 2 -56h-26q-2 8 -3 15q-4 23 -11 34q-6 12 -26 13q1 0 -19 1q-19 0 -69 1v-139q0 -39 45 -39h89
q41 0 57 17q16 18 32 61q5 10 10 22h22v0z" />
    <glyph glyph-name="imdb" unicode="&#xf2d8;" 
d="M90 124h-36v138h36v-138v0zM156 197l9 65h47v-138h-31v93l-14 -93h-21l-13 91v-91h-31v138h46q0 -8 2 -17q1 -6 2 -13l4 -35v0zM224 124v138h26q25 0 33 -3q9 -2 14 -8q5 -4 6 -12q1 -6 1 -26v-48q0 -18 -1 -25q-2 -6 -6 -9q-5 -4 -11 -5q-7 -2 -19 -2h-43v0zM259 238
v-89q8 0 10 2q1 3 1 17v53q1 9 0 12t-3 5h-2h-6v0v0zM317 124v138h34v-44q4 4 9 6q6 3 13 3t12 -2q5 -3 8 -7q3 -3 3 -7q1 -2 0 -7v-10v-38v-4q0 -9 -1 -15t-7 -9q-7 -6 -15 -5q-7 0 -13 2q-5 3 -9 8l-2 -9h-32v0zM362 145q1 3 1 13v35q0 9 -1 11q-2 3 -6 3q-3 0 -4 -2
q-1 -3 -1 -12v-36q0 -10 1 -12q1 -3 4 -3t6 3v0v0zM418 416q12 -1 21 -10v0q8 -9 8 -22v-384q0 -13 -8 -22q-8 -8 -20 -9l-1 -1v0h-388v0q-1 1 -1 0q-25 4 -29 30v388q4 26 30 31h388v-1v0v0v0zM30 407q-18 -3 -21 -21v-388q1 -8 7 -14t14 -7h388q19 4 21 23v384q0 9 -6 16
q-6 6 -15 7h-388v0z" />
    <glyph glyph-name="ravelry" unicode="&#xf2d9;" horiz-adv-x="512" 
d="M498 214q0 5 -1 10v0q-1 10 -2 21q-4 18 -10 36q-10 32 -31 58q-9 11 -19 22q-21 21 -47 36q-27 16 -57 24q-16 5 -33 8l-14 2h-7v1h-1h-32h-2q-3 -1 -5 -1q-18 -2 -34 -7q-21 -6 -40 -17q-20 -10 -38 -24q-10 -7 -18 -14v0q-16 -14 -30 -29q-20 -20 -34 -44
q-13 -21 -20 -44q-6 -17 -8 -35t-2 -35q1 -21 5 -41q5 -27 17 -53q9 -21 24 -39q11 -16 26 -29q19 -17 42 -30q26 -16 56 -26q20 -6 40 -10q6 0 13 -1h6q0 -1 1 -1h32h3q2 1 5 1q24 2 47 11q26 9 49 24q15 9 29 20q7 5 13 12q2 1 3 2l12 12q18 19 31 41q15 24 22 51
q4 16 7 32q1 5 2 11v5l1 1v0v37q-1 1 -1 2v0zM337 215q-1 0 -10 1v0q-9 2 -18 2q-20 0 -27 -10t-7 -27v-94h-73v191h73v-32q11 38 62 36v-67z" />
    <glyph glyph-name="sellcast" unicode="&#xf2da;" 
d="M353 416h-258q-40 -1 -67 -28t-28 -67v-258q1 -40 28 -67t67 -28h258q41 1 67 28q27 27 28 67v258q-1 40 -28 67q-26 27 -67 28v0zM303 100q-22 -37 -61 -47v0q-39 -11 -77 9q-19 -27 -34 -16q-16 11 -8 30l16 27q11 16 29 8q12 -7 9 -6q-2 2 10 -5q21 -12 44 -6
q22 6 35 27q12 22 6 44q-6 23 -27 36q-10 6 -9 5l-1 1q-2 0 -9 4q-17 13 -8 30q10 16 30 8q11 -7 9 -6q-2 2 9 -5q37 -22 47 -62q11 -39 -10 -76v0zM325 308q-5 -9 -8 -14v0q-6 -11 -8 -13v0q-2 -3 -3 -4q-10 -11 -26 -4q-12 7 -10 6q3 -2 -9 5q-21 12 -44 6q-22 -6 -35 -27
q-12 -22 -6 -44q6 -23 27 -36q1 0 9 -5t10 -5q17 -13 8 -30q-10 -16 -30 -8q-12 7 -9 6q2 -2 -9 5q-37 22 -47 61q-11 40 10 77q22 37 61 47q39 11 77 -10l5 9q13 17 29 8q17 -10 8 -30v0z" />
    <glyph glyph-name="superpowers" unicode="&#xf2dd;" 
d="M448 416q-62 -8 -125 -17v0q-63 -8 -125 -16q-70 -11 -117 -60q-46 -49 -52 -120q-2 -42 13 -80q15 -39 45 -68l-87 -87q62 8 125 16q62 9 125 17q70 11 117 60q46 49 52 120q2 42 -13 80q-15 39 -45 68l87 87v0zM368 184q-5 -61 -48 -99v0q-44 -38 -105 -36
q-61 5 -99 47q-39 43 -37 104q5 61 49 99q43 38 104 36q61 -5 100 -48q38 -42 36 -103v0z" />
    <glyph glyph-name="wpexplorer" unicode="&#xf2de;" horiz-adv-x="512" 
d="M512 192q-1 -71 -35 -129v0q-34 -58 -92 -92v0q-58 -34 -129 -35q-71 1 -129 35t-92 92t-35 129q1 71 35 129t92 92t129 35q71 -1 129 -35t92 -92t35 -129v0zM480 192q-1 62 -31 113v0q-29 50 -80 80v0q-50 30 -113 31q-62 -1 -113 -31q-50 -30 -80 -80q-30 -51 -31 -113
q1 -62 31 -113q30 -50 80 -80q51 -30 113 -31q62 1 113 31q50 30 80 80q30 51 31 113v0zM161 323l87 -37l-37 -87l-87 37l37 87v0zM271 154l47 -94h-15l-50 100l-49 -100h-14l51 107l-22 10l6 14l68 -30l-6 -14l-16 7v0zM259 271l69 -30l-30 -68l-68 29l29 69v0zM339 228
l55 -23l-23 -55l-55 23l23 55v0z" />
    <glyph glyph-name="meetup" unicode="&#xf2e0;" horiz-adv-x="512" 
d="M99 34q1 -10 -8 -13q-9 -1 -12 8q-1 10 8 13q9 1 12 -8v0zM242 -38q-10 -8 -4 -20q9 -10 20 -3q10 8 4 20q-8 10 -20 3v0zM156 425q10 3 9 14q-3 10 -14 9q-10 -4 -9 -14q3 -11 14 -9v0zM34 222q-17 10 -30 -6q-10 -18 6 -31q17 -10 30 5q10 19 -6 32v0zM306 393
q17 12 8 30q-12 16 -30 8q-16 -12 -7 -31q11 -16 29 -7v0zM115 335q12 10 5 23q-10 12 -24 5q-11 -11 -4 -24q10 -12 23 -4v0zM488 179q-13 -4 -11 -17q4 -12 16 -11q12 4 11 17q-4 12 -16 11v0zM527 235q-2 9 -12 8q-9 -2 -8 -12q3 -9 13 -8q9 3 7 12v0zM447 309
q-13 -11 -5 -26q11 -13 26 -5q13 11 5 26q-11 14 -26 5v0zM441 170q19 -34 12 -70v0q-7 -36 -39 -59q-26 -19 -56 -18q-12 -35 -44 -45q-33 -10 -62 13q0 -1 -1 -1l-2 -2q-31 -20 -64 -14q-34 6 -56 36q-14 22 -15 47q-33 7 -50 31q-18 25 -17 55q2 30 26 54q-20 37 -4 72
q17 35 58 43q21 51 70 68q48 17 93 -14q53 15 93 -15q40 -31 38 -86q31 -12 38 -42q6 -30 -18 -53v0zM371 95q-5 13 -21 13v0q-9 1 -15 4v0q-6 2 -7 11q-1 12 5 30q7 18 16 37q8 19 14 34q6 16 5 27q-3 17 -13 23t-21 6q-17 0 -21 -4v-1h-1q-4 -5 -11 1l-2 2q-7 8 -17 11
q-16 2 -27 -10l-2 -2q-3 -3 -8 -6t-10 -1v0q-3 1 -10 5l-14 6q-13 5 -27 -1q-14 -7 -21 -19q-9 -17 -21 -54q-11 -37 -18 -60q-2 -8 -3 -11q-6 -21 5 -34q12 -14 32 -13q15 -1 25 17q2 4 9 21q7 18 15 39q7 20 13 35t8 18q4 7 14 5q8 -6 6 -15q0 -5 -5 -18t-11 -27
q-11 -26 -13 -33q-1 -17 14 -19t25 15q2 5 12 25l23 46q12 23 14 28q6 8 12 8q7 2 7 -11q-1 -4 -6 -15t-11 -25q-8 -15 -14 -28q-6 -14 -8 -20q-3 -16 4 -30q7 -13 21 -21q12 -5 35 -6q24 -1 24 17v0zM376 3q-16 -14 -5 -32q13 -17 32 -6q16 13 6 32q-14 17 -33 6v0z" />
    <glyph glyph-name="square-font-awesome-stroke" unicode="&#xf35c;" 
d="M202 296q-23 -1 -37 -8v0q-10 -4 -21 -6v6q-1 15 -16 16q-15 -1 -16 -16v-192v-2v-1v-1q4 -11 16 -12q12 1 16 12v2v2v154q6 1 11 3q5 1 10 3q14 7 37 8q24 -1 41 -9q13 -6 33 -7q13 0 24 3l4 2v-96q-14 -5 -28 -5q-22 1 -37 8t-37 8q-15 0 -26 -4v-32q11 4 26 4
q24 -1 41 -9q13 -6 33 -7q11 0 21 3q10 2 25 8q6 2 14 5v160q-8 -3 -14 -5q-15 -6 -25 -8q-10 -3 -21 -3q-22 1 -37 8t-37 8v0zM384 416h-320q-27 -1 -45 -19t-19 -45v-320q1 -27 19 -45t45 -19h320q27 1 45 19t19 45v320q-1 27 -19 45t-45 19v0zM416 32q0 -14 -9 -23v0
q-9 -9 -23 -9h-320q-14 0 -23 9t-9 23v320q0 14 9 23t23 9h320q14 0 23 -9t9 -23v-320v0z" />
    <glyph glyph-name="accusoft" unicode="&#xf369;" horiz-adv-x="640" 
d="M322 196v1l-51 66l-8 -3q-7 -2 -17 -12l-38 -38q-33 -32 -76 -75q-50 -49 -88 -87q-39 -38 -41 -41q-5 -7 -1 -7q5 1 16 5v0q3 1 30 9q27 9 55 18l30 10v0v0v0v18q-1 8 -1 10q0 7 7 9l93 34q2 2 27 25t46 43q16 14 17 15v0zM482 76q10 -12 17 -12v0q7 -1 14 3q4 1 31 13
q28 11 56 23q28 11 31 12q5 4 1 11t-8 13q-3 3 -33 39q-31 37 -71 85t-71 85q-30 36 -33 39q-6 9 -13 11q-8 2 -25 2h-33h-51q-26 -1 -33 -1h-1q-14 1 -21 -2q-6 -2 3 -15q5 -5 38 -48q34 -43 78 -100q47 -59 84 -106q36 -47 40 -52v0zM635 74q-3 1 -18 4v0q-11 2 -20 3
q-2 0 -30 -13l-56 -24q-28 -13 -32 -14q-11 -5 -20 0t-16 14l-57 74q-8 2 -33 6q-26 3 -33 4q-6 0 -14 -3q-5 -2 -39 -14l-70 -26q-36 -13 -41 -15q-1 0 -3 -1q-8 -2 -8 -6q0 -3 3 -4h1q4 -1 48 -11q45 -10 105 -23q59 -13 104 -24q46 -10 51 -11q3 -1 7 -2q11 -2 24 -4
q13 -1 23 4q3 2 33 21q30 18 60 37q29 18 33 20q7 6 -2 8v0z" />
    <glyph glyph-name="adversal" unicode="&#xf36a;" horiz-adv-x="512" 
d="M482 416h-453q-17 0 -23 -6t-6 -23v-390q0 -17 6 -23t23 -6h453q18 0 24 6t6 24v388q0 18 -6 24t-24 6v0zM178 228q-22 15 -47 8v0q-26 -7 -37 -32q-5 -13 -16 -8h-1q-15 2 -23 5q-13 7 -10 20q4 14 15 27t20 18q62 31 125 5q26 -11 31 -37q6 -26 4 -67v-25q1 -12 1 -26
q-3 -31 8 -63q3 -6 -2 -10q-8 -5 -24 -3q-16 3 -23 10q-1 2 -2 3t-2 3q-5 5 -12 -1q-46 -27 -92 -16q-47 11 -55 59q-2 23 9 42q10 19 31 29q29 13 66 16q20 2 33 5t15 10q2 16 -12 28v0zM465 6q0 -9 -4 -10v0q-4 -2 -9 -1v0q-3 1 -5 1h-395q-2 0 -4 -1q-5 -1 -9 1
q-4 1 -4 11q0 7 4 9q4 1 8 0h5h397h4q4 1 8 -1q4 -1 4 -9v0zM469 346v-291q1 -11 -8 -14q-5 0 -11 -1q-15 -4 -25 7q-6 8 -10 3q-1 -1 -3 -2q-42 -23 -86 -3q-43 20 -58 88q-9 51 16 100q5 13 23 29q17 16 45 19q28 4 68 -17v71v0q-1 19 3 23t23 3h3h6q15 1 14 -14v-1v0z
M417 114q-16 -35 -45 -35v0q-30 1 -45 30q-23 50 1 101q14 26 38 27q25 1 43 -22q15 -24 15 -55q-1 -32 -7 -46v0zM123 79h-2v0q-8 0 -19 6v0q-12 5 -13 21q1 22 20 26q25 6 51 11l22 4q10 1 8 -7v-3q1 -25 -18 -42q-18 -16 -49 -16v0z" />
    <glyph glyph-name="affiliatetheme" unicode="&#xf36b;" horiz-adv-x="512" 
d="M160 211q-40 -55 -81 -80v0q-42 -25 -65 -10q-21 18 -10 66q11 47 50 102q40 54 81 79q42 25 65 10q21 -18 10 -65t-50 -102v0zM511 268q-58 -94 -133 -135v0q-74 -40 -132 -9q-37 24 -49 74q-25 -49 -68 -84q-42 -34 -96 -49q38 -45 91 -71q54 -26 116 -26q76 1 137 38
q62 36 98 98t37 139q0 13 -1 25v0z" />
    <glyph glyph-name="algolia" unicode="&#xf36c;" horiz-adv-x="512" 
d="M256 448q-71 -1 -128 -34v0q-57 -34 -92 -91v0q-34 -57 -36 -127q0 -72 34 -130q33 -58 91 -93t130 -37q66 0 123 31q5 4 1 10l-24 21q-8 7 -18 3q-39 -17 -84 -16q-88 3 -146 63q-58 59 -59 148q4 86 62 144q59 58 146 60h208v-369l-118 104q-7 5 -13 -1
q-30 -39 -84 -38q-36 3 -61 28t-28 61q-2 44 25 73q28 30 71 31q39 -1 65 -26q27 -24 31 -62q1 -7 6 -12l31 -27q7 -4 10 4q3 17 2 36q-5 56 -43 93q-37 37 -93 42q-63 2 -107 -38q-43 -40 -47 -103q0 -61 41 -103q40 -42 101 -46q50 0 88 28l154 -136q5 -5 11 -2q6 2 6 9
v492q-1 9 -10 10h-246v0z" />
    <glyph glyph-name="amilia" unicode="&#xf36d;" 
d="M240 416q-47 0 -95 -13v0q-49 -14 -89 -42q-9 -5 -7 -20v-3q2 -7 4 -17q3 -11 6 -19q9 -14 20 -7q26 18 68 33q41 14 85 15q41 0 51 -20q9 -19 7 -53v-38q-45 -6 -95 -15t-91 -17q-40 -9 -57 -16q-23 -14 -28 -49q-4 -35 -3 -57v-6q0 -11 8 -35q9 -25 36 -46
q27 -22 81 -23q37 1 80 13q42 12 74 29v-25q0 -6 6 -9q5 -1 27 -2h33h5h36h25q6 3 5 9v297q1 61 -46 98q-46 37 -146 38v0zM290 68q-32 -22 -79 -24q-38 1 -49 18q-11 16 -10 26v4q-1 12 2 27q3 14 17 22q19 11 52 20q33 10 67 14v-107z" />
    <glyph glyph-name="angrycreative" unicode="&#xf36e;" horiz-adv-x="640" 
d="M640 210l-3 -28l-35 -3l-2 -18l35 2l-3 -28l-35 -2l-2 -20l34 2l-3 -26l-64 -4l12 113l-47 -115l-32 -2l-24 118l31 2l13 -80l32 83l93 6v0zM427 76l28 2l13 120l-28 -2l-13 -120v0zM162 60l-19 36l-4 -38l-28 -1l3 29q-9 -14 -24 -24q-14 -10 -33 -12q-26 -1 -42 14
q-16 16 -15 44q2 23 20 43q17 20 48 23q25 0 36 -10q11 -9 14 -17q1 -1 1 -2l3 31l39 2q15 1 27 -4t15 -20l3 27l65 4l-3 -28l-36 -2l-2 -18l36 2l-2 -28l-37 -2l-2 -20l37 3l-2 -21l55 117l23 2l32 -111l9 86l-22 -2l3 28l75 5l-3 -28l-24 -2l-10 -92l-58 -3l-4 15l-40 -2
l-8 -16l-126 -8v0zM118 130l-27 -2q-9 18 -26 16q-15 -1 -24 -11t-11 -22q-1 -13 6 -22q7 -10 23 -9q18 2 29 19l27 1l3 30v0zM174 138q2 17 -26 12l-3 -28q11 0 19 3t10 13v0zM195 67l6 60q-8 -19 -28 -27l22 -33v0zM330 112l-8 38l-15 -40l23 2v0zM160 187l-4 17l-40 -3
l-8 -18l-32 -2l57 122l24 2l31 -102l10 104l27 2l38 -63l6 66l29 2l-4 -41v1q6 12 20 28q14 15 43 18q27 1 39 -11t14 -18q0 -1 1 -1l3 32l39 3q22 3 36 -10l-4 12l32 2l13 -43l23 46l31 2l-43 -79l-5 -44l-29 -2l5 45l-16 43q2 -35 -32 -50l26 -39l-37 -2l-19 37l-4 -39
l-28 -2l3 32q-1 -2 -2 -3q-5 -10 -18 -21t-40 -14q-40 -3 -55 39l-4 -40l-25 -2l-38 63l-6 -66l-57 -3v0zM437 269q15 1 21 4q7 4 8 12t-3 11q-5 3 -23 2l-3 -29v0zM328 234q8 -9 21 -8q7 1 13 4q9 5 15 15l-34 -3l3 24l63 4l1 12l-31 -2q-6 6 -11 8q-6 3 -13 3
q-12 -1 -22 -9q-11 -10 -13 -25q-1 -14 8 -23v0zM126 226l24 1l-8 38l-16 -39v0z" />
    <glyph glyph-name="app-store" unicode="&#xf36f;" horiz-adv-x="512" 
d="M256 327l9 16q11 15 28 7q15 -11 7 -28l-87 -151h63q16 -1 23 -14t0 -27h-185q-19 2 -21 20q2 19 21 21h52l66 115l-20 36q-8 17 7 28q17 8 28 -7l9 -16v0zM177 109l-19 -34q-11 -15 -28 -7q-16 10 -8 27l15 26q24 7 40 -12v0zM346 171h53q19 -2 21 -21q-2 -18 -21 -20
h-29l20 -34q7 -18 -8 -28q-17 -8 -28 7q-26 46 -46 80q-17 30 -29 51q-12 22 -8 42q5 19 15 27q19 -32 55 -95q2 -4 5 -9v0zM256 440q-69 -1 -125 -34v0q-56 -33 -89 -89v0q-33 -56 -34 -125q1 -69 34 -125t89 -89t125 -34q69 1 125 34t89 89t34 125q-1 69 -34 125t-89 89
t-125 34v0zM472 192q-2 -91 -63 -153v0q-61 -61 -153 -63q-91 2 -153 63q-61 61 -63 153q2 91 63 153q61 61 153 63q91 -2 153 -63q61 -61 63 -153v0z" />
    <glyph glyph-name="app-store-ios" unicode="&#xf370;" 
d="M400 416h-352q-20 -1 -34 -14q-13 -14 -14 -34v-352q1 -20 14 -34q14 -13 34 -14h352q20 1 34 14q13 14 14 34v352q-1 20 -14 34q-14 13 -34 14v0zM127 63q-11 -14 -27 -7q-15 11 -8 27l15 25q24 8 39 -11l-19 -34v0zM266 117h-182q-18 2 -20 20q2 19 20 20h51l65 114
l-20 35q-8 17 7 27q17 8 28 -7l8 -15l9 15q11 15 28 7q15 -10 7 -27l-86 -149h62q16 -1 22 -13q7 -13 1 -27v0zM364 117h-29l20 -34q7 -16 -8 -27q-16 -7 -27 7q-22 38 -39 68q-21 37 -35 61q-12 22 -7 41q4 18 14 26q4 -6 8 -14q19 -33 51 -88h52q18 -1 20 -20
q-2 -18 -20 -20v0z" />
    <glyph glyph-name="apper" unicode="&#xf371;" horiz-adv-x="640" 
d="M42 209q16 0 23 -3v0q8 -3 11 -12v0v23q1 16 -17 16q-16 1 -16 -13h-38q0 18 6 24q8 13 46 12q46 1 54 -19q3 -9 4 -24v-76h-39l2 19h-1q-6 -22 -36 -20q-43 -2 -41 37q-1 37 42 36v0zM59 161q18 -1 17 13q2 13 -19 12q-19 1 -18 -12q-3 -15 20 -13v0zM137 256h38l-1 -21
h1q6 13 14 17q7 4 23 4q22 0 32 -9q7 -6 10 -17t2 -31q0 -22 -2 -34q-3 -12 -10 -19q-9 -11 -33 -10q-29 -1 -34 21h-1v-70h-39v169v0zM218 195q0 20 -4 27v0q-4 6 -17 5q-12 1 -16 -5q-5 -6 -4 -23q-1 -21 3 -27q5 -7 18 -7q12 0 16 6t4 24v0zM276 256h38l-1 -21v0
q7 13 14 17q8 4 24 4q21 0 31 -9q8 -6 10 -17q3 -11 3 -31q0 -22 -2 -34q-3 -12 -10 -19q-9 -11 -33 -10q-29 -1 -34 21h-1v-70h-39v169v0zM357 195q0 20 -4 27v0q-4 6 -17 5q-12 1 -17 -5q-4 -6 -4 -23q0 -21 4 -27q5 -7 17 -7q13 0 17 6t4 24v0zM410 199q0 36 13 46
q12 11 45 11q31 0 44 -12q12 -12 12 -44v-11h-76v-5v0q-2 -23 20 -22q19 -1 18 14h38v-2q-1 -15 -7 -25q-9 -14 -45 -13q-39 -1 -50 12q-12 10 -11 51h-1zM487 210v4q2 17 -20 15q-19 1 -18 -15v-4h38v0zM542 256h39l-2 -20h1q8 21 29 20q17 0 24 -9q7 -8 7 -34v-10h-35v4v0
q1 22 -10 20q-10 0 -13 -10q-2 -2 -1 -12v-68h-39v119v0z" />
    <glyph glyph-name="asymmetrik" unicode="&#xf372;" horiz-adv-x="576" 
d="M518 139q58 61 58 116q0 50 -43 86q-44 36 -126 49q-99 14 -208 -9q-108 -23 -199 -74q79 42 171 59q56 15 113 19q56 3 108 -5q115 -20 143 -85q28 -66 -44 -146q-16 -16 -35 -31l-151 227l-190 -286q-50 23 -56 64t37 87q32 34 79 58q29 19 62 31q-100 -32 -161 -93
q-42 -43 -42 -83q0 -54 68 -83l-34 -51h101l22 34q34 -1 69 3l-23 -37h136l-33 53q28 8 55 18l45 -71h102l-73 110q28 18 49 40v0zM330 58l-25 41l-33 -53q-35 -6 -69 -5l102 160l79 -124q-26 -11 -54 -19v0z" />
    <glyph glyph-name="audible" unicode="&#xf373;" horiz-adv-x="640" 
d="M640 248v-54l-320 -200l-320 200v54l320 -200l320 200v0zM446 176l47 29q-29 43 -74 68t-99 25q-55 0 -99 -25q-45 -25 -74 -67h1q3 3 7 6q71 56 152 46q82 -11 139 -82v0zM225 157q26 19 58 19q53 -2 86 -48l46 29q-16 23 -41 36t-54 13q-61 -2 -95 -49v0zM104 287
q67 52 144 61v0q78 9 150 -22v0q72 -32 123 -101l1 -1l49 30q-41 62 -106 99q-66 36 -145 37q-79 -1 -144 -37t-107 -99q16 18 35 33v0z" />
    <glyph glyph-name="avianex" unicode="&#xf374;" horiz-adv-x="512" 
d="M453 416h-312q-30 -1 -53 -20q-24 -20 -30 -50l-57 -308q-5 -30 12 -50q16 -19 46 -20h312q30 1 53 20q24 20 30 50l57 308q5 30 -12 50q-16 19 -46 20v0zM395 69l-32 -14l-115 110q-23 -15 -42 -27l22 -64l-18 -13l-41 61l-52 48l16 16l58 -31q14 16 33 34l-21 30
l-69 100l19 29l9 5l103 -113l5 -4q31 30 34 32q14 9 30 -8q14 -18 3 -31l-2 -2q-9 -6 -33 -24l4 -7l95 -119l-6 -8v0z" />
    <glyph glyph-name="aws" unicode="&#xf375;" horiz-adv-x="640" 
d="M180 245q1 -22 8 -31v0q3 -5 3 -8q0 -4 -4 -6l-13 -9q-2 -2 -5 -2v0q-1 -1 -6 3q-6 4 -15 22q-24 -29 -62 -29q-15 -2 -36 10q-22 12 -22 46q-1 29 21 45q21 16 49 15q10 1 47 -6v16q2 20 -10 33q-12 12 -34 10h-1q-6 3 -45 -10q-9 -3 -10 -2h-1q-5 1 -5 11q1 9 2 13
q5 5 24 11t42 7q31 2 56 -17q19 -23 17 -53v-69v0zM94 213q24 1 36 11v0q11 10 13 19q3 12 2 23v4q-15 5 -39 5q-13 2 -27 -5t-15 -27q-1 -13 7 -22q9 -9 23 -8v0zM265 190q-11 0 -13 10l-50 165q-1 4 -1 8q-1 4 3 5v0h3h20q12 -1 12 -10l36 -141l33 141q0 3 3 7q3 3 10 3
h17q2 1 7 -1q4 -1 6 -9l33 -143l37 143q0 2 3 6q2 4 10 4h19q1 1 4 0q2 -2 2 -8v-1q0 2 -2 -6q-3 -8 -14 -44t-37 -119q-1 -10 -13 -11h-18q-8 0 -11 5q-2 5 -2 6v0l-33 137l-33 -137v0q0 -1 -2 -6q-3 -5 -11 -4h-18v0zM538 184q-5 0 -22 2v0q-17 2 -35 10q-7 4 -8 12v11
q1 6 4 6q3 1 5 0l4 -2q10 -5 25 -8q26 -5 40 -1q13 3 16 5q0 1 1 1q9 6 10 17q2 10 -5 18q-6 5 -13 8q-7 2 -23 7q-7 2 -17 6q-6 0 -24 12q-18 11 -20 40q0 22 18 39q18 16 51 17q11 0 30 -4q18 -3 26 -12q2 -3 2 -7v-10q0 -7 -5 -7l-9 3q-12 7 -40 8q-7 1 -22 -3
q-16 -4 -17 -22q2 -14 14 -20t16 -7v0q7 -2 13 -3q19 -6 30 -11t20 -15q12 -18 10 -34t-5 -22q-17 -26 -41 -31q-24 -4 -28 -3h-1v0zM579 79q-54 -39 -123 -59v0q-69 -20 -136 -20q-88 -1 -170 30q-81 31 -147 91q-5 4 -2 8t9 1q147 -83 317 -84q126 1 241 49q10 4 14 -3
q5 -6 -3 -13v0zM608 112q-9 8 -36 7v0q-26 -1 -45 -4v0h-1q-11 1 -2 10q33 20 69 19t45 -9q6 -10 -3 -45t-37 -62q-11 -6 -9 4l1 1q7 18 15 44q8 25 3 35v0z" />
    <glyph glyph-name="bimobject" unicode="&#xf378;" 
d="M416 416h-384q-14 0 -23 -9t-9 -23v-384q0 -14 9 -23t23 -9h384q14 0 23 9t9 23v384q0 14 -9 23t-23 9v0zM352 159q2 -38 -17 -60v0q-20 -22 -87 -23h-17q-32 0 -48 10q-17 11 -22 29h-1v-35h-64v232h64v-75h1q5 23 25 31q21 9 45 8h17q67 0 87 -23q19 -22 17 -59v-35v0z
M288 187v-22q1 -17 -6 -25q-7 -9 -32 -9h-46q-21 -1 -33 7q-11 7 -11 29v19q0 21 11 28q12 8 33 7h46q25 0 32 -8q7 -9 6 -25v-1z" />
    <glyph glyph-name="bitcoin" unicode="&#xf379;" horiz-adv-x="512" 
d="M504 192q-1 -69 -34 -125v0q-33 -56 -89 -89v0q-56 -33 -125 -34q-69 1 -125 34t-89 89t-34 125q1 69 34 125t89 89t125 34q69 -1 125 -34t89 -89t34 -125v0zM362 227q3 25 -12 40v0q-16 14 -42 23l11 45l-27 6l-11 -43q-11 3 -22 5l11 44l-27 7l-11 -45l-18 4v0l-37 9
l-7 -29q1 0 10 -2q8 -2 9 -2q15 -6 13 -16l-13 -51q1 -1 3 -1h-1t-2 1l-18 -72q-1 -7 -12 -6q-1 0 -10 2t-10 3l-13 -31l35 -9q6 -2 12 -3q4 -1 7 -2l-11 -45l27 -7l12 44q10 -2 21 -5l-11 -45l27 -6l12 45q35 -8 60 -1q24 7 36 37q8 25 1 41q-8 16 -26 25q28 5 34 40v0z
M300 140q-8 -22 -34 -20v0q-26 2 -44 8v0q-3 1 -6 1l15 60q3 -1 7 -1q20 -4 43 -14q23 -11 19 -34v0zM309 228q-7 -20 -29 -19v0q-22 1 -37 6v0q-3 1 -5 2l14 54q2 -1 5 -1q17 -3 36 -12t16 -30v0z" />
    <glyph glyph-name="bity" unicode="&#xf37a;" horiz-adv-x="496" 
d="M78 381q49 44 110 60v0q61 15 123 -1v0q61 -16 111 -63q9 -12 0 -22q-10 -10 -23 0q-66 62 -150 62t-149 -58q-13 -10 -22 0t0 22v0zM177 -38q15 -2 20 11v0q4 13 -12 19q-85 28 -126 102q-41 73 -21 159q2 15 -12 19q-13 3 -18 -12q-16 -64 1 -125q16 -61 60 -107
q43 -46 108 -66v0zM325 -36q93 33 139 114v0q46 81 26 177q-5 15 -19 12q-13 -3 -11 -20q17 -83 -23 -153q-40 -71 -120 -100q-16 -7 -11 -20q4 -13 19 -10v0zM263 43v72q-2 14 -15 15q-14 -2 -15 -15v-72q1 -13 15 -15q13 2 15 15v0zM334 312v-5v0q4 -65 -9 -96v0
q-13 -31 -77 -31q-63 0 -76 30q-14 30 -10 90q0 6 1 12q-3 16 -17 16q-14 -1 -16 -16v-71q2 -52 38 -72q35 -20 80 -19q45 -1 80 19q36 20 38 72v71q-2 15 -16 16q-14 0 -16 -16v0z" />
    <glyph glyph-name="blackberry" unicode="&#xf37b;" horiz-adv-x="512" 
d="M166 331q1 -18 -15 -33v0q-16 -15 -57 -16h-71l21 89h68q31 -1 43 -14t11 -26v0zM292 371h-68l-18 -89h70q39 1 55 16t15 33q1 13 -11 26t-43 14v0zM89 240h-68l-21 -89h70q41 1 57 15t16 34q0 13 -12 26q-11 13 -42 14v0zM269 240h-68l-19 -89h71q39 1 55 15
q15 14 15 34q0 13 -11 26q-12 13 -43 14v0zM458 294h-68l-18 -89h70q39 1 55 15t15 34q1 13 -11 26t-43 14v0zM430 156h-68l-18 -89h70q41 1 56 15t14 34q0 13 -11 26q-12 13 -43 14v0zM241 102h-68l-19 -89h70q42 1 56 16q15 15 15 33q0 13 -12 26q-11 13 -42 14v0z" />
    <glyph glyph-name="blogger" unicode="&#xf37c;" 
d="M162 252q3 4 9 4v0q6 1 28 1h25q5 -1 7 -2q8 -4 8 -14q0 -8 -7 -13q-2 -1 -7 -2h-25q-26 0 -31 1q-8 2 -10 11q-2 8 3 14v0zM224 157q-39 1 -49 0v0q-10 -1 -11 -4q-6 -6 -6 -14q2 -8 10 -12q1 0 13 -1h43l48 1l9 1q14 11 3 25v0q-2 3 -11 4q-10 1 -49 0v0zM447 27
q-7 -44 -51 -57q-2 -1 -12 -1q-9 -1 -45 -1h-116h-113t-47 1q-10 0 -12 1q-12 3 -22 10q-10 8 -17 16q-7 10 -10 22q-1 2 -1 12q-1 9 -1 45v117v116t1 45q0 10 1 12q11 39 51 50q5 0 55 1h115h115q50 -1 55 -1q32 -7 48 -37q1 -1 1 -3q3 -3 4 -13t2 -46v-118v-127
q0 -40 -1 -44v0zM362 213q-2 8 -8 11q-3 1 -15 2q-9 0 -12 1q-4 0 -6 2q-9 4 -8 18q0 31 -25 57q-18 18 -41 25q-2 1 -11 1q-8 0 -28 1q-31 0 -44 -1q-14 -1 -23 -6q-42 -17 -54 -62q-1 -3 -1 -15q-1 -13 -1 -49q0 -46 1 -61q0 -16 3 -24q8 -23 26 -39q18 -15 39 -19
q6 -1 36 -1q30 -1 60 -1q30 1 38 1q29 4 50 26q16 16 22 39q2 6 2 28q1 21 1 41q-1 21 -1 25v0z" />
    <glyph glyph-name="blogger-b" unicode="&#xf37d;" 
d="M447 225q-4 13 -13 19q-5 2 -25 2q-14 1 -19 2t-10 3q-14 7 -12 30q-1 50 -41 91q-29 30 -66 41q-4 1 -17 2q-14 0 -46 1q-50 0 -72 -1q-21 -2 -37 -9q-67 -28 -86 -101q-1 -5 -2 -25q0 -20 -1 -79q0 -73 1 -99q1 -25 6 -37q12 -38 41 -63t63 -32q10 -1 58 -2h97t61 2
q47 6 82 42q25 25 35 62q3 10 3 45q1 34 1 67t-1 39v0zM125 289q4 6 14 7v0q9 1 44 1h40q9 -1 12 -3q14 -7 14 -22q0 -14 -13 -22q-2 -2 -11 -2q-8 -1 -39 -1q-43 0 -51 1q-13 5 -16 18t5 23h1zM316 89l-15 -2l-77 -1q-50 -1 -70 0q-19 1 -21 2q-12 6 -15 19q-1 13 8 23
q3 4 19 5t79 1v0q64 1 79 -1q15 -1 18 -7q9 -9 8 -20q-2 -12 -13 -19v0z" />
    <glyph glyph-name="buromobelexperte" unicode="&#xf37f;" 
d="M0 416v-128h128v128h-128v0zM120 296h-112v112h112v-112v0zM160 416v-128h128v128h-128v0zM280 296h-112v112h112v-112v0zM320 416v-128h128v128h-128v0zM440 296h-112v112h112v-112v0zM0 256v-128h128v128h-128v0zM120 136h-112v112h112v-112v0zM160 256v-128h128v128
h-128v0zM280 136h-112v112h112v-112v0zM320 256v-128h128v128h-128v0zM440 136h-112v112h112v-112v0zM0 96v-128h128v128h-128v0zM120 -24h-112v112h112v-112v0zM160 96v-128h128v128h-128v0zM280 -24h-112v112h112v-112v0zM320 96v-128h128v128h-128v0z" />
    <glyph glyph-name="centercode" unicode="&#xf380;" horiz-adv-x="512" 
d="M329 179q-3 -27 -23 -43v0q-20 -16 -47 -13t-43 23t-14 47q3 27 23 43t47 14q27 -4 43 -24q16 -19 14 -47v0zM243 -56q-74 5 -129 45v0q-56 39 -84 101v0q-28 62 -20 134q9 65 46 115t93 77q83 37 163 18q80 -20 133 -82q54 -62 59 -153q1 -74 -34 -133t-95 -92t-132 -30
v0zM423 124q11 60 -32 107v0q-43 48 -103 80v0q-61 33 -102 47q-43 -43 -52 -134q-8 -91 18 -210q53 -11 123 18q71 29 148 92v0z" />
    <glyph glyph-name="cloudscale" unicode="&#xf383;" 
d="M318 294l-9 -8q-35 32 -84 34q-55 -2 -91 -39q-37 -38 -38 -93q0 -10 1 -20q0 43 27 70t66 28q37 -1 63 -25l-26 -20q-13 1 -23 -8q-8 -9 -8 -20q0 -12 8 -21q9 -8 20 -8q12 0 20 8q10 11 8 24l76 88q4 6 0 10q-5 4 -10 0v0zM234 182q-10 -8 -20 0q-8 11 0 21q10 8 20 0
q9 -10 0 -21v0zM224 416q-62 -1 -113 -31v0q-50 -30 -80 -80v0q-30 -51 -31 -113q1 -62 31 -113q30 -50 80 -80q51 -30 113 -31q62 1 113 31q50 30 80 80q30 51 31 113q-1 62 -31 113q-30 50 -80 80q-51 30 -113 31v0zM224 32q-68 2 -113 47v0q-45 45 -47 113q2 68 47 113
t113 47q68 -2 113 -47t47 -113q-2 -68 -47 -113t-113 -47v0z" />
    <glyph glyph-name="cloudsmith" unicode="&#xf384;" horiz-adv-x="512" 
d="M512 220v-57l-228 -227h-56l-228 228v56l228 228h57l227 -228v0zM256 58q37 0 68 17v0q32 17 51 49q18 32 18 68t-18 68q-19 32 -51 49q-31 17 -68 16q-37 1 -68 -16q-32 -17 -51 -49q-18 -32 -18 -68t18 -68q19 -32 51 -49q31 -17 68 -17v0z" />
    <glyph glyph-name="cloudversify" unicode="&#xf385;" horiz-adv-x="616" 
d="M149 144q7 -52 46 -83v0q40 -31 100 -28q40 -33 93 -33q54 0 93 38q52 1 87 29q34 28 45 71q10 48 -13 92q-24 44 -80 63q-17 44 -50 65q-34 21 -71 25t-65 -5q-43 -13 -66 -40t-33 -70h-1q-15 -3 -44 -24q16 -2 15 -19v-21q-2 -18 -20 -19h-20q-18 0 -19 16v7h-47
q-8 0 -11 -12v-40q1 -11 12 -12h49v0zM376 136q-7 -34 11 -55v0q18 -21 44 -32q-54 -15 -90 1q-37 16 -50 47q-13 32 5 63q-24 -18 -29 -46q-4 -29 0 -47q-2 2 -5 3q-15 9 -32 27t-21 50q-1 30 14 55q16 25 43 39q26 12 67 4q42 -9 67 -45q-11 36 -38 54t-64 21q23 23 50 36
q27 12 64 7q36 -5 64 -28q27 -22 31 -55q5 -33 -27 -67q26 13 37 36q12 23 11 41l10 -20q18 -34 10 -72q-8 -29 -29 -50q-21 -20 -51 -26q-26 -6 -55 7q-29 12 -37 52v0zM128 240h-40q-15 1 -16 16v40q1 15 16 16h40q15 -1 16 -16v-40q-1 -15 -16 -16v0zM10 280q-9 1 -10 10
v28q1 9 10 10h28q9 -1 10 -10v-28q-1 -9 -10 -10h-28v0zM168 305v22q1 8 9 9h22q8 -1 9 -9v-22q-1 -8 -9 -9h-22q-8 1 -9 9v0zM56 212v-25q-1 -10 -11 -11h-26q-10 1 -11 11v25q1 11 11 12h26q10 -1 11 -12v0z" />
    <glyph glyph-name="cpanel" unicode="&#xf388;" horiz-adv-x="640" 
d="M210 228q-4 19 -18 30v0q-14 11 -33 11h-37q-11 -1 -14 -11l-35 -130h25q11 1 14 11l26 96h20q13 -1 18 -15q2 -9 -4 -16q-5 -7 -14 -7h-11q-11 -1 -14 -11l-6 -23h32q28 1 42 21q14 21 9 44v0zM54 200h18q11 0 15 11l6 23h-40q-37 0 -51 -41q-6 -26 9 -45t41 -20h12
l8 26q0 8 -7 8h-11q-19 3 -19 19t19 19v0zM301 235h-78l-3 -14q-2 -16 14 -18h58q4 -2 2 -5v-1l-9 -31v-1q0 -4 -5 -5h-35q-4 1 -4 4q0 4 4 4h21q11 1 15 11l3 13h-48q-20 -1 -28 -16q-7 -16 -1 -31q7 -15 28 -17h57q18 1 24 18l14 52q3 15 -6 25q-8 11 -23 12v0zM633 269
h-19q-8 0 -10 -8l-36 -133q16 0 29 9q12 10 16 25l27 99q1 7 -7 8v0zM397 234v0h-48l-27 -98q-1 -7 7 -8h19q7 0 10 8l17 64h20q10 -1 15 -8t3 -16l-10 -40q-2 -7 6 -8h19q8 0 10 8l9 33q6 26 -9 45t-41 20v0zM495 160q-6 1 -5 6l8 30q2 6 8 6h33q4 0 4 -5l-1 -2
q-1 -3 -4 -3h-22q-11 -1 -14 -11l-3 -13h53q17 0 23 18l4 12q3 14 -6 25q-8 11 -23 11h-47q-29 -1 -39 -29l-10 -40q-4 -14 4 -25t24 -12h67q10 1 14 11l5 21h-73z" />
    <glyph glyph-name="css3-alt" unicode="&#xf38b;" horiz-adv-x="384" 
d="M0 416l35 -396l157 -52l157 52l35 396h-384v0zM313 336l-5 -47l-115 -50v0h111l-13 -146l-98 -29l-99 29l-6 74h49l3 -38l53 -14l54 16l4 61l-166 1v0v0l-4 46l112 47l7 3h-123l-6 47h242v0z" />
    <glyph glyph-name="cuttlefish" unicode="&#xf38c;" horiz-adv-x="440" 
d="M344 142q-14 -24 -40 -39v0q-26 -15 -56 -15q-44 1 -73 31q-30 29 -31 73q1 44 31 73q29 30 73 31q30 0 56 -15t40 -40q20 79 87 118q-34 38 -81 59q-47 22 -102 22q-69 -1 -125 -34t-89 -89t-34 -125q1 -69 34 -125t89 -89t125 -34q55 0 102 22q47 21 81 59
q-67 39 -87 117v0z" />
    </font>
</defs>
</svg>
